ARRU





Sousei no Aquarion: Uragiri no Tsubasa OVA
Акварион (OVA)(2007)[01-02 из 02][BDRip][HWP]   Bookmark


Скачать вход / регистрация
Тема на форуме Обсудить аниме (комментариев: 27)
Обсуждение раздачи (комментариев: 27)
ОписаниеSousei no Aquarion: Uragiri no Tsubasa OVA / Акварион (OVA)(2007)[01-02 из 02][BDRip][HWP]
Оригинальное название:  Sousei no Aquarion: Uragiri no Tsubasa
Английское название: Genesis of Aquarion: Wings of Betrayal
Русское название: Акварион OVA
Производство: Япония
Год выпуска: 2007
Жанр: приключения, фантастика, меха, драма
Тип: OVA
Количество эпизодов: 2
Продолжительность: 50 мин.
Режиссёр: Кавамори Сёдзи
Автор оригинала: Кавамори Сёдзи (Эпопея Макросс, Ведение Эскафлона,Земная Дева Арджуна)
Сценарий: Оноги Хироси ( Балдр,Ноэйн, Макросс Зеро,Горячий Парень Джей)
Студия:


Описание:
Двенадцать тысяч лет Тёмные Ангелы Атландии ждали шанса нанести роковой удар человечеству, но когда этот шанс наконец представился, на защиту мира встала международная организация "Деава". Аполло — подросток-пилот одного из истребителей "Деавы", составляющих робота Аквариона, является реинкарнацией падшего ангела Аполлония, и судьба этого пятнадцатилетнего храбреца — снова выступить против своего извечного соперника Томы в решающей битве, которая определит судьбы Земли.
Двухсерийный фильм, который стал прекрасным дополнением к популярному сериалу «Акварион» — альтернативный взгляд на события данного сериала и еще один шанс окунуться в удивительную постмодернистскую вселенную, вобравшую в себя черты легендарного «Евангелиона» и множества других фильмов с участием гигантских человекоподобных роботов и сверхъестественных агрессоров. «Акварион» — детище выдающегося режиссера Сёдзи Кавамори («Макросс», «Макросс-плюс», Escaflowne). В этом приключенческом аниме, богатом действием и визуальными находками, традиции жанра соединились с ультрасовременной режиссурой и подлинным психологизмом неординарного сюжета. (c)

Названия эпизодов:
01. Wing of Betrayal
02. Wings of Glory


Источник рипа: BD-Rip
Автор рипа\энкод: Renmei Rei
Тип видео: Без хардсаба
Контейнер: AVI
Видео: XviD (Build 64) | 720 x 404 пикселей | 23,976 кадра/сек | ~1500 Кбит/сек ;

Аудио:
RUS: AC-3 | 48.0 КГц | стерео | 192 Кбит/сек;
JAP:  AC-3 | 48.0 КГц | стерео | 256 Кбит/сек

Субтитры: русские\отдельно [SRT, SSA][MC Entertainment]
Перевод: MC Entertainment
Озвучивание: Профессиональная (многоголосная, закадровая) MC Entertainment

MediaInfo: - показать
Общее
Полное имя                               : R:\Video\HWP\Aquarion (OVA)[1-2 of 2][BD-Rip][HWP][AnimeReactor.RU]\Aquarion OVA [01 of 02][BDRip][720x404 XviD AC3x2][AnimeReactor.RU].avi
Формат                                   : AVI
Формат/Информация                        : Audio Video Interleave
Размер файла                             : 692 Мбайт
Продолжительность                        : 49 м.
Общий поток                              : 1970 Кбит/сек
Программа кодирования                    : VirtualDubModRus 1.5.10.2 (build 2542/release)
Библиотека кодирования                   : VirtualDubMod build 2542/release

Видео
Идентификатор                            : 0
Формат                                   : MPEG-4 Visual
Профиль формата                          : Advanced Simple@L5
Параметр BVOP формата                    : 2
Параметр QPel формата                    : Нет
Параметр GMC формата                     : Без точки перехода
Параметр матрицы формата                 : Default (H.263)
Идентификатор кодека                     : XVID
Идентификатор кодека/Подсказка           : XviD
Продолжительность                        : 49 м.
Битрейт                                  : 1507 Кбит/сек
Ширина                                   : 720 пикселей
Высота                                   : 404 пикселя
Соотношение сторон                       : 16:9
Частота кадров                           : 23,976 кадра/сек
Цветовое пространство                    : YUV
Субдискретизация насыщенности            : 4:2:0
Битовая глубина                          : 8 бит
Тип развёртки                            : Прогрессивная
Метод сжатия                             : С потерями
Бит/(Пиксели*Кадры)                      : 0.216
Размер потока                            : 530 Мбайт (77%)
Библиотека кодирования                   : XviD 64

Аудио #1
Идентификатор                            : 1
Формат                                   : AC-3
Формат/Информация                        : Audio Coding 3
Расширение режима                        : CM (complete main)
Параметр Endianness формата              : Big
Идентификатор кодека                     : 2000
Продолжительность                        : 49 м.
Вид битрейта                             : Постоянный
Битрейт                                  : 192 Кбит/сек
Каналы                                   : 2 канала
Расположение каналов                     : Front: L R
Частота                                  : 48,0 КГц
Битовая глубина                          : 16 бит
Метод сжатия                             : С потерями
Размер потока                            : 67,5 Мбайт (10%)
Выравнивание                             : Разделение по промежуткам
Продолжительность промежутка             : 42  мс. (1,00 видеокадр)
Время предзагрузки промежутка            : 500  мс.
Заголовок                                : Russian [MC Entertainment]

Аудио #2
Идентификатор                            : 2
Формат                                   : AC-3
Формат/Информация                        : Audio Coding 3
Расширение режима                        : CM (complete main)
Параметр Endianness формата              : Big
Идентификатор кодека                     : 2000
Продолжительность                        : 49 м.
Вид битрейта                             : Постоянный
Битрейт                                  : 256 Кбит/сек
Каналы                                   : 2 канала
Расположение каналов                     : Front: L R
Частота                                  : 48,0 КГц
Битовая глубина                          : 16 бит
Метод сжатия                             : С потерями
Размер потока                            : 90,0 Мбайт (13%)
Выравнивание                             : Разделение по промежуткам
Продолжительность промежутка             : 42  мс. (1,00 видеокадр)
Время предзагрузки промежутка            : 500  мс.
Заголовок                                : Japanese [Original]


Скриншоты: - показать


Дядя Шарик
Релиз от
источник
ARRU & RenmeiRei & REBUILD ARRU
А вы ничего не забыли?
наверх

Последние поступления