ARRU





Sousei no Aquarion
Акварион (первый сезон)(2005)[1-26 из 26][BDRip][HWP]   Bookmark


Скачать вход / регистрация
Тема на форуме Обсудить аниме (комментариев: 27)
Обсуждение раздачи (комментариев: 27)
ОписаниеSousei no Aquarion / Акварион (первый сезон)(2005)[1-26 из 26][BDRip][HWP]
Оригинальное название: Sousei no Aquarion
Английское название: Aquarion
Русское название: Акварион
Производство: Япония
Год выпуска: 2005
Жанр: приключения, фантастика, меха, драма
Тип: ТВ
Количество эпизодов: 26
Продолжительность: 24 мин.
Режиссёр: Кавамори Сёдзи
Автор оригинала: Кавамори Сёдзи (Эпопея Макросс, Ведение Эскафлона,Земная Дева Арджуна)
Сценарий: Оноги Хироси ( Балдр,Ноэйн, Макросс Зеро,Горячий Парень Джей)
Дизайн Меха:Такакура Такэси (Тактика шума,Горячий Парень Джей,Семя яблока, Странники)
Дизайн персонажей:Фудзикава Футоси (Клеопатра Ди-Си, Сны оружия)
Студия:


Описание:
Год 0011 Эры Священного Начала. После великой катастрофы Земля лежит в руинах. Спасти свой мир и остатки человечества пытаются молодые люди, готовые объединить свои силы, души и тела ради победы над захватчиками – Ангелами Тьмы древней Атлантиды, очнувшимися после двенадцатитысячелетнего сна...
© Анастасия Розанова

Названия эпизодов:
01. Воспоминания небесных крыльев
02. Зверь тьмы
03. Школа элементов
04. Босой воин
05. Король подземного лабиринта
06. Иная сторона чувств
07. Рыцарь алой розы
08. Первый Гаттай. Первое соединение
09. Дорога снов
10. Звёзды в небе, цветы на земле
11. Счастье на дне озера
12. Время янтаря
13. Любовное письмо двенадцатитысячелетней давности
14. Сияющие тени
15. Первая любовь Аквариона
16. Чёрное зеркало
17. Гаттай на вкус
18. Бал-маскарад души
19. Невинная шалость
20. Звук Ангельского Пера
21. Алая дорога
22. Незримые крылья
23. Стремительные крылья
24. Небесные врата
25. Финальная Битва! Атландия
26. День, когда начинается мир


Источник рипа: BD-Rip
Автор рипа\энкод: Renmei Rei
Тип видео: Без хардсаба
Контейнер: AVI
Видео: XviD (Build 64) | 720 x 404 пикселей | 23,976 кадра/сек | ~1500 Кбит/сек ;

Аудио:
RUS: AC-3 | 48.0 КГц | 6 каналов | 384 Кбит/сек;
JAP:  AC-3 | 48.0 КГц | стерео | 256 Кбит/сек

Субтитры: русские\отдельно [SRT][MC Entertainment]
Перевод: MC Entertainment
Озвучивание: Профессиональная (многоголосная, закадровая) MC Entertainment

MediaInfo: - показать
Общее
Полное имя                               : R:\Video\HWP\Aquarion (TV-1)[1-26 of 26][BDRip][HWP][AnimeReactor.RU]\Aquarion [01 of 26][BDRip][720x404 XviD AC3x2][AnimeReactor.RU].avi
Формат                                   : AVI
Формат/Информация                        : Audio Video Interleave
Размер файла                             : 394 Мбайт
Продолжительность                        : 25 м.
Общий поток                              : 2156 Кбит/сек
Программа кодирования                    : VirtualDubModRus 1.5.10.2 (build 2542/release)
Библиотека кодирования                   : VirtualDubMod build 2542/release

Видео
Идентификатор                            : 0
Формат                                   : MPEG-4 Visual
Профиль формата                          : Advanced Simple@L5
Параметр BVOP формата                    : 2
Параметр QPel формата                    : Нет
Параметр GMC формата                     : Без точки перехода
Параметр матрицы формата                 : Default (H.263)
Идентификатор кодека                     : XVID
Идентификатор кодека/Подсказка           : XviD
Продолжительность                        : 25 м.
Битрейт                                  : 1502 Кбит/сек
Ширина                                   : 720 пикселей
Высота                                   : 404 пикселя
Соотношение сторон                       : 16:9
Частота кадров                           : 23,976 кадра/сек
Цветовое пространство                    : YUV
Субдискретизация насыщенности            : 4:2:0
Битовая глубина                          : 8 бит
Тип развёртки                            : Прогрессивная
Метод сжатия                             : С потерями
Бит/(Пиксели*Кадры)                      : 0.215
Размер потока                            : 275 Мбайт (70%)
Библиотека кодирования                   : XviD 64

Аудио #1
Идентификатор                            : 1
Формат                                   : AC-3
Формат/Информация                        : Audio Coding 3
Расширение режима                        : CM (complete main)
Параметр Endianness формата              : Big
Идентификатор кодека                     : 2000
Продолжительность                        : 25 м.
Вид битрейта                             : Постоянный
Битрейт                                  : 384 Кбит/сек
Каналы                                   : 6 каналов
Расположение каналов                     : Front: L C R, Side: L R, LFE
Частота                                  : 48,0 КГц
Битовая глубина                          : 16 бит
Метод сжатия                             : С потерями
Размер потока                            : 70,1 Мбайт (18%)
Выравнивание                             : Разделение по промежуткам
Продолжительность промежутка             : 42  мс. (1,00 видеокадр)
Время предзагрузки промежутка            : 500  мс.
Заголовок                                : Russian [MC Enterteiment]

Аудио #2
Идентификатор                            : 2
Формат                                   : AC-3
Формат/Информация                        : Audio Coding 3
Расширение режима                        : CM (complete main)
Параметр Endianness формата              : Big
Идентификатор кодека                     : 2000
Продолжительность                        : 25 м.
Вид битрейта                             : Постоянный
Битрейт                                  : 256 Кбит/сек
Каналы                                   : 2 канала
Расположение каналов                     : Front: L R
Частота                                  : 48,0 КГц
Битовая глубина                          : 16 бит
Метод сжатия                             : С потерями
Размер потока                            : 46,8 Мбайт (12%)
Выравнивание                             : Разделение по промежуткам
Продолжительность промежутка             : 42  мс. (1,00 видеокадр)
Время предзагрузки промежутка            : 500  мс.
Заголовок                                : Japanese [Original]


Скриншоты: - показать



Дядя Шарик
Релиз от
источник
ARRU & RenmeiRei & REBUILD ARRU
А вы ничего не забыли?
наверх

Последние поступления