ARRU





Берсерк
Berserk (1997)[01-25 из 25][BDRip][HWP]   Bookmark


Скачать вход / регистрация
Тема на форуме Обсудить аниме (комментариев: 556)
Обсуждение раздачи (комментариев: 12)
ОписаниеБерсерк / Berserk (1997)[01-25 из 25][BDRip][HWP]
Оригинальное название: Kenpuu Denki Berserk
Английское название: Berserk
Русское название: Берсерк
Страна: Япония
Год выпуска: 1997 год
Жанр: приключения, фэнтези, драма
Категория: TV
Количество эпизодов: 25 эпизодов
Продолжительность: 25 минут
Режиссёр: Такахаси Наохито
Снято по манге: Berserk
Автор оригинала: Миура Кэнтаро
Студия: Oriental Light and Magic


Описание:
  Через предательство и кровь к власти пришел новый король. Его демоны-подручные чинят несправедливости до тех пор, пока в город однажды ночью не приходит тяжело вооруженный воин. Весь покрытый оружием, броней и шрамами, он называет себя Чёрным Мечником. Размеры его меча могут сравниться только с его ненавистью к королю и его демонам.
  Итак, «Берсерк», по сути своей - это средневековая военная драма с множественными вкраплениями элементов фэнтези и хоррора. Центром всего повествования является жизненный путь бывшего наёмника, а ныне охотника на демонов, Гатса. Сюжет «Берсерка» буквально погружает нас в водоворот, состоящий из предательства, судьбы, магии, демонов, и, конечно же, эльфов и т.д.
  «Мы должны взять судьбу в свои руки и не позволить ей решать, как нам жить и как умереть» - это и есть основная мысль «Берсерка», которая раскрывается перед нами на протяжении всего аниме-сериала. В то же время, в нём рассматривается вопрос - насколько далеко может зайти человек, и скольким/и он может пожертвовать ради того, чтобы достигнуть своей мечты? (c)


Названия эпизодов: - показать

01. ЧЁРНЬlЙ МЕЧНИК
02. ОТРЯД СОКОЛА
03. ПЕРВАЯ БИТВА
04. ДЛАНЬ ГОСПОДНЯ
05. ВЕТЕР МЕЧЕЙ
06. БЕССМЕРТНЬlЙ ЗОДД
07. ХОЗЯИН МЕЧА
08. ЗАГОВОР
09. УБИЙСТВО
10. ДВОРЯНИН
11. БИТВА
12. ВМЕСТЕ
13. ГОТОВЬl К СМЕРТИ
14. КОСТЁР ГРЁЗ
15. РЕШАЮЩЕЕ СРАЖЕНИЕ
16. ЗАВОЕВАТЕЛЬ
17. МГНОВЕНИЕ СЛАВЬl
18. ОГНЕННОЕ НАДГРОБЬЕ
19. РАССТАВАНИЕ
20. ИСКРЬl
21. ПРИЗНАНИЕ
22. ПРОНИКНОВЕНИЕ
23. НАКАНУНЕ ПИРА
24. ВЕЛИКОЕ ЗАТМЕНИЕ
25. ВРЕМЯ ВЕЧНОСТИ


Источник рипа: BD-Rip [Sensetivity-raws]
Автор рипа\энкод: Renmei Rei
Тип видео: Без хардсаба
Контейнер: AVI
Видео: XviD (Build 64) | 720 x 540 пикселей | 23,976 кадра/сек | ~1800 Кбит/сек ;

Аудио:
RUS: AC-3 | 48.0 КГц | 6 каналов | 384 Кбит/сек;
JAP:  AC-3 | 48.0 КГц | стерео | 256 Кбит/сек

Субтитры: русские\отдельно [SRT,SSA]
Перевод: MC Entertainment
Озвучивание: Профессиональное многоголосое, закадровое (MC Entertainment)

MediaInfo: - показать
Общее
Полное имя                               : R:\Video\HWP\Berserk (TV)[1-25 of 24][BDRip][HWP][AnimeReactor.ru]\Berserk [01 of 25][BDRip][720x540 XviD AC3x2][AnimeReactor.RU].avi
Формат                                   : AVI
Формат/Информация                        : Audio Video Interleave
Размер файла                             : 417 Мбайт
Продолжительность                        : 23 м.
Общий поток                              : 2464 Кбит/сек
Программа кодирования                    : VirtualDubModRus 1.5.10.2 (build 2542/release)
Библиотека кодирования                   : VirtualDubMod build 2542/release

Видео
Идентификатор                            : 0
Формат                                   : MPEG-4 Visual
Профиль формата                          : Advanced Simple@L5
Параметр BVOP формата                    : 2
Параметр QPel формата                    : Нет
Параметр GMC формата                     : Без точки перехода
Параметр матрицы формата                 : Default (H.263)
Идентификатор кодека                     : XVID
Идентификатор кодека/Подсказка           : XviD
Продолжительность                        : 23 м.
Битрейт                                  : 1810 Кбит/сек
Ширина                                   : 720 пикселей
Высота                                   : 540 пикселей
Соотношение сторон                       : 4:3
Частота кадров                           : 23,976 кадра/сек
Цветовое пространство                    : YUV
Субдискретизация насыщенности            : 4:2:0
Битовая глубина                          : 8 бит
Тип развёртки                            : Прогрессивная
Метод сжатия                             : С потерями
Бит/(Пиксели*Кадры)                      : 0.194
Размер потока                            : 306 Мбайт (73%)
Библиотека кодирования                   : XviD 64

Аудио #1
Идентификатор                            : 1
Формат                                   : AC-3
Формат/Информация                        : Audio Coding 3
Расширение режима                        : CM (complete main)
Параметр Endianness формата              : Big
Идентификатор кодека                     : 2000
Продолжительность                        : 23 м.
Вид битрейта                             : Постоянный
Битрейт                                  : 384 Кбит/сек
Каналы                                   : 6 каналов
Расположение каналов                     : Front: L C R, Side: L R, LFE
Частота                                  : 48,0 КГц
Битовая глубина                          : 16 бит
Метод сжатия                             : С потерями
Размер потока                            : 65,0 Мбайт (16%)
Выравнивание                             : Разделение по промежуткам
Продолжительность промежутка             : 42  мс. (1,00 видеокадр)
Время предзагрузки промежутка            : 500  мс.
Заголовок                                : Russian [MC Entertainment]

Аудио #2
Идентификатор                            : 2
Формат                                   : AC-3
Формат/Информация                        : Audio Coding 3
Расширение режима                        : CM (complete main)
Параметр Endianness формата              : Big
Идентификатор кодека                     : 2000
Продолжительность                        : 23 м.
Вид битрейта                             : Постоянный
Битрейт                                  : 256 Кбит/сек
Каналы                                   : 2 канала
Расположение каналов                     : Front: L R
Частота                                  : 48,0 КГц
Битовая глубина                          : 16 бит
Метод сжатия                             : С потерями
Размер потока                            : 43,3 Мбайт (10%)
Выравнивание                             : Разделение по промежуткам
Продолжительность промежутка             : 42  мс. (1,00 видеокадр)
Время предзагрузки промежутка            : 500  мс.
Заголовок                                : Japanese [Original]


Скриншоты: - показать


Дядя Шарик
Релиз от
источник
ARRU & RenmeiRei & REBUILD ARRU
А вы ничего не забыли?
наверх

Последние поступления