ARRU





Tsubasa: Reservoir Chronicle TV1
Хроника Крыльев (первый сезон)(2005)[BD-Rip][720p]   Bookmark


Скачать вход / регистрация
Тема на форуме Обсудить аниме (комментариев: 116)
Обсуждение раздачи (комментариев: 74)
ОписаниеTsubasa: Reservoir Chronicle TV1 / Хроника Крыльев (первый сезон)(2005)[BD-Rip][720p]
Оригинальное название:  ツバサ・クロニクル ( 年代記 )
Английское название: Tsubasa Reservoir Chronicles
Русское название: Хроника Крыльев

Страна: Япония
Жанр: приключения, романтика, драма, фэнтези
Год выхода: 2005
Колличество серий: 26
Продолжительность: 25 мин
Студия: BEETRAIN
Режиссёр: Масимо Койти
Автор оригинала: Кавасаки Хироюки

Описание:
Вселенная Кламп, иной мир… В нем Сакура – принцесса дивной страны Клоу, а Сяоран – молодой археолог, неделями пропадающий на раскопках. Но и в этом мире они встретились и полюбили друг друга. Вот только счастье было недолгим – слишком уж многих привлекает сила, скрытая в принцессе. И пускай посланные убийцы не достигают цели… В пустынных руинах, куда Сакуру занесла сама судьба, за ее спиной вспыхивают радужные Крылья Памяти – и тут же сотнями ярких перьев разлетаются по иным мирам и пространствам.
Чтобы спасти любимую, вернуть ей память, Сяоран должен найти союзников и собрать разлетевшиеся Перья Души – все до одного. Таинственная Ведьма Измерений помогает ему сколотить весьма необычную команду для этой странной миссии. Правда, за услуги Юко требует высокую цену, но герои уверены – оно того стоит. Долгое странствие начинается!

© Hollow

Названия эпизодов - показать

01. Неизбежное Встреча
02. Сила для Боя
03. Меч, Разгоняющий Зло
04. Безгрешный Бродяга
05. Битва Магов
06. Не Пролитые Слёзы
07. Провалы Памяти
08. Любимая Дочь Бога
09. Очаровательная Леди
10. Зеркало Разлуки
11. Избранные Завтра
12. Тёплая Улыбка
13. Повелитель Иллюзий
14. Восстановление Истины
15. Вера в Сердце
16. Сила и Доброта
17. Работа в Кафе
18. Котята и Щенята
19. Жизненное Решение
20. Вечернее Фортепиано
21. Истинное Лицо ОНИ
22. Не Стираемая Память
23. Исчезающая Жизнь
24. Поединок до Смерти
25. Завершающая Игра
26. Последнее Желание


Источник рипа: BD-Rip
Автор рипа\энкод: RACER RS
Тип видео: Без хардсаба
Контейнер: MKV
Видео: AVC1 High@L5.1 | 1280 x 720 (16:9) | 23,976 fps | 2500 kbps ;

Аудио:
RUS 1: AAC | 48000Hz | 151 Kbps | 2ch Little_Polka & Retto & Koyl Van
RUS 2: VORBIS | 48000Hz | 96 Kbps | 2ch Е.Лурье с 19 серии Харука
JAP: AC3 | 48000Hz | 256 Kbps | 2ch Original
Субтитры: Ru - soft [ASS]

Перевод: unvasily

MediaInfo: - показать

General
Unique ID                                : 224126889858230094366190331423408730088 (0xA89D44D37CA7BC47B3F54DF157972FE8)
Complete name                            : I:\ARRU Rebuild HD\Tsubasa Chronicle (TV1)[BDRip][720p] Animereactor.ru\Tsubasa Chronicle (TV-1) [09 of 26] [1280x720 h264 AAC] [Polka Production & NAG & Animereactor.ru].mkv
Format                                   : Matroska
Format version                           : Version 2
File size                                : 538 MiB
Duration                                 : 25mn 0s
Overall bit rate mode                    : Variable
Overall bit rate                         : 3 004 Kbps
Movie name                               : Crushed Memento
Encoded date                             : UTC 2012-05-16 10:36:18
Writing application                      : mkvmerge v5.3.0 ('I could have danced' built on Feb  9 2012 10:38:07
Writing library                          : libebml v1.2.3 + libmatroska v1.3.0

Video
ID                                       : 1
Format                                   : AVC
Format/Info                              : Advanced Video Codec
Format profile                           : High@L5.1
Format settings, CABAC                   : No
Format settings, ReFrames                : 2 frames
Muxing mode                              : Header stripping
Codec ID                                 : V_MPEG4/ISO/AVC
Duration                                 : 25mn 1s
Nominal bit rate                         : 2 500 Kbps
Width                                    : 1 280 pixels
Height                                   : 720 pixels
Display aspect ratio                     : 16:9
Frame rate mode                          : Variable
Frame rate                               : 23.976 fps
Color space                              : YUV
Chroma subsampling                       : 4:2:0
Bit depth                                : 8 bits
Scan type                                : Progressive
Bits/(Pixel*Frame)                       : 0.113
Writing library                          : x264 core 120 r2146M bcd41db
Encoding settings                        : cabac=0 / ref=1 / deblock=1:0:0 / analyse=0x3:0x133 / me=hex / subme=10 / psy=1 / psy_rd=1.00:0.20 / mixed_ref=0 / me_range=16 / chroma_me=1 / trellis=2 / 8x8dct=1 / cqm=0 / deadzone=21,11 / fast_pskip=1 / chroma_qp_offset=-3 / threads=8 / sliced_threads=0 / nr=0 / decimate=1 / interlaced=0 / bluray_compat=0 / constrained_intra=0 / bframes=1 / b_pyramid=0 / b_adapt=2 / b_bias=0 / direct=3 / weightb=1 / open_gop=0 / weightp=2 / keyint=230 / keyint_min=23 / scenecut=40 / intra_refresh=0 / rc_lookahead=0 / rc=2pass / mbtree=1 / bitrate=2500 / ratetol=1.0 / qcomp=0.60 / qpmin=10 / qpmax=51 / qpstep=4 / cplxblur=20.0 / qblur=0.5 / ip_ratio=1.40 / aq=1:1.00
Default                                  : Yes
Forced                                   : No

Audio #1
ID                                       : 2
Format                                   : AAC
Format/Info                              : Advanced Audio Codec
Format profile                           : LC
Codec ID                                 : A_AAC
Duration                                 : 25mn 0s
Channel(s)                               : 2 channels
Channel positions                        : Front: L R
Sampling rate                            : 48.0 KHz
Compression mode                         : Lossy
Title                                    : Little_Polka & Retto & Koyl Van
Language                                 : Russian
Default                                  : Yes
Forced                                   : No

Audio #2
ID                                       : 3
Format                                   : Vorbis
Format settings, Floor                   : 1
Codec ID                                 : A_VORBIS
Duration                                 : 25mn 0s
Bit rate mode                            : Variable
Bit rate                                 : 96.0 Kbps
Channel(s)                               : 2 channels
Sampling rate                            : 48.0 KHz
Compression mode                         : Lossy
Stream size                              : 17.2 MiB (3%)
Title                                    : Е.Лурье
Writing library                          : aoTuV b5d  (UTC 2009-03-01)
Language                                 : Russian
Default                                  : No
Forced                                   : No

Audio #3
ID                                       : 4
Format                                   : AC-3
Format/Info                              : Audio Coding 3
Mode extension                           : CM (complete main)
Muxing mode                              : Header stripping
Codec ID                                 : A_AC3
Duration                                 : 25mn 0s
Bit rate mode                            : Constant
Bit rate                                 : 256 Kbps
Channel(s)                               : 2 channels
Channel positions                        : Front: L R
Sampling rate                            : 48.0 KHz
Bit depth                                : 16 bits
Compression mode                         : Lossy
Stream size                              : 45.8 MiB (9%)
Title                                    : Original
Language                                 : Japanese
Default                                  : No
Forced                                   : No

Text
ID                                       : 5
Format                                   : ASS
Codec ID                                 : S_TEXT/ASS
Codec ID/Info                            : Advanced Sub Station Alpha
Compression mode                         : Lossless
Title                                    : unvasily
Language                                 : Russian
Default                                  : No
Forced                                   : No




Скриншоты: - показать




Дядя Шарик
Релиз от
источник
ARRU & Netlab AnimaGroup & Polka Production & REBUILD ARRU   &   RACER_RS
А вы ничего не забыли?
наверх

Последние поступления