ARRU





Одному лишь Богу ведомый мир 2
Kami Nomi zo Shiru Sekai (TV2)(2011)[01-12 из 12][BD-Rip][HWP]   Bookmark


Скачать вход / регистрация
Тема на форуме Обсудить аниме (комментариев: 197)
Обсуждение раздачи (комментариев: 53)
ОписаниеОдному лишь Богу ведомый мир 2 / Kami Nomi zo Shiru Sekai (TV2)(2011)[01-12 из 12][BD-Rip][HWP]
Оригинальное название: Kami nomi zo Shiru Sekai II
Английское название: The World God Only Knows II
Русское название: Одному лишь Богу ведомый мир 2

Страна: Япония
Жанр: приключения, комедия, мистика, романтика
Год выхода: 2011
Колличество серий: 12
Продолжительность: 25 мин
Студия: Manglobe Inc.
Режиссёр: Такаянаги Сигэхито
Автор оригинала: Вакаки Тамики

Описание:
Кацураги Кейма известен в интернете как «Чарующий Бог». Своё прозвище он получил не просто так… Он способен очаровать любую девушку, хоть принцессу, хоть служанку… Но, только если она двухмерна. В школе же его считают двинутым очкариком. Однажды, Кейма получает смс-ку с предложением заключить контракт на «очарование» всех девушек. Без особых раздумий, он соглашается, посчитав этот контракт за вызов… И демонесса Элси является перед ним во всей своей красе. Она просит его помощи в поимке сбежавших духов, которые прячутся в глубинах девичьих сердец. Единственный способ выселить незванного гостя из сердца… Дать девушке почувствовать любовь. Кацураги отказывается помогать Элси, он утвеждает, что заинтересован лишь в двухмерных девушках, а от трёхмерных его воротит. Увы, контракт уже подписан. У Кеймы нет выбора, он обязан помоган Элси. Если он потерпит неудачу, то на пару с незадачливой демоницей потеряет свою жизнь.

© Xellos Slayer

Названия эпизодов - показать

01. Flower in Bloom
02. Problem Solved by the Fist
03. The Section Chief Cometh
04. Section Chief Regains Her Pride
05. It Always Rains at the End of a Hard Journey
06. 10% Chance of Rain
07. Singing in the Rain
08. First Errand / Tea for Three
09. Nagase-sensei of Second Year Class B
10. School Wars
11. There`s Always a Sun in Your Heart
12. Summer Wars


Источник рипа: BD-Rip
Автор рипа\энкод: RACER RS
Тип видео: Без хардсаба
Контейнер: AVI
Видео: XviD 64 | 720 x 404 (16:9) | 23,976 fps | 1500 kbps ;

Аудио:
RUS: AC3 | 48000Hz | 256 Kbps | 2ch
JAP: AC3 | 48000Hz | 256 Kbps | 2ch
Субтитры: Ru - soft [ASS]и[SRT]

Озвучивание: Persona99
Перевод: BO3DYX, Редактура / оформление: Nachtwandler

MediaInfo: - показать

General
Complete name                            : I:\ARRU Rebuild\Kami nomi zo Shiru Sekai (TV2)[01-12 of 12][BDRip][HWP] Animereactor.ru\Kami nomi zo Shiru Sekai (TV2)[01 of 12] [720x404  Xvid AC3x2][Persona99 & Animereactor.ru].avi
Format                                   : AVI
Format/Info                              : Audio Video Interleave
File size                                : 343 MiB
Duration                                 : 23mn 38s
Overall bit rate                         : 2 026 Kbps
Writing application                      : VirtualDubMod 1.5.10.2 (build 2540/release)
Writing library                          : VirtualDubMod build 2540/release

Video
ID                                       : 0
Format                                   : MPEG-4 Visual
Format profile                           : Advanced Simple@L5
Format settings, BVOP                    : 2
Format settings, QPel                    : No
Format settings, GMC                     : No warppoints
Format settings, Matrix                  : Default (H.263)
Codec ID                                 : XVID
Codec ID/Hint                            : XviD
Duration                                 : 23mn 38s
Bit rate                                 : 1 500 Kbps
Width                                    : 720 pixels
Height                                   : 404 pixels
Display aspect ratio                     : 16:9
Frame rate                               : 23.976 fps
Color space                              : YUV
Chroma subsampling                       : 4:2:0
Bit depth                                : 8 bits
Scan type                                : Progressive
Compression mode                         : Lossy
Bits/(Pixel*Frame)                       : 0.215
Stream size                              : 254 MiB (74%)
Writing library                          : XviD 64

Audio #1
ID                                       : 1
Format                                   : AC-3
Format/Info                              : Audio Coding 3
Mode extension                           : CM (complete main)
Codec ID                                 : 2000
Duration                                 : 23mn 38s
Bit rate mode                            : Constant
Bit rate                                 : 256 Kbps
Channel(s)                               : 2 channels
Channel positions                        : Front: L R
Sampling rate                            : 48.0 KHz
Bit depth                                : 16 bits
Compression mode                         : Lossy
Stream size                              : 43.3 MiB (13%)
Alignment                                : Split accross interleaves
Interleave, duration                     : 42 ms (1.00 video frame)
Interleave, preload duration             : 500 ms
Title                                    : Persona99 [Russian]

Audio #2
ID                                       : 2
Format                                   : AC-3
Format/Info                              : Audio Coding 3
Mode extension                           : CM (complete main)
Codec ID                                 : 2000
Duration                                 : 23mn 38s
Bit rate mode                            : Constant
Bit rate                                 : 256 Kbps
Channel(s)                               : 2 channels
Channel positions                        : Front: L R
Sampling rate                            : 48.0 KHz
Bit depth                                : 16 bits
Compression mode                         : Lossy
Stream size                              : 43.3 MiB (13%)
Alignment                                : Split accross interleaves
Interleave, duration                     : 42 ms (1.00 video frame)
Interleave, preload duration             : 500 ms
Title                                    : Original [Japanese]


Скриншоты: - показать




Дядя Шарик
Релиз от
источник
ARRU & Get Smart & REBUILD ARRU   &   RACER_RS
А вы ничего не забыли?
наверх

Последние поступления