ARRU





Священная семёрка
Sacred Seven (TV) [12 of 12] [BD-Rip] [HWP]   Bookmark


Скачать вход / регистрация
Тема на форуме Обсудить аниме (комментариев: 35)
Обсуждение раздачи (комментариев: 18)
ОписаниеСвященная семёрка / Sacred Seven (TV) [12 of 12] [BD-Rip] [HWP]
Английское название: Sacred Seven
Русское название: Священная семёрка
Страна: Япония
Год выпуска / период трансляции: 2011
Жанр: приключения, меха, фантастика
Количество эпизодов: 12
Продолжительность: 25 мин  
Студия: SUNRISE
Режиссёр: Охаси Ёсимицу

Описание:
В этом странном мире сверхчеловеческие возможности дают обладание чудесными камнями, которые «родственны» организму владельца. Кусочек такого минерала когда-то достался 17-летнему Аруме Тандодзи – и счастья ему не принес. Из-за взрывов буйства и ярости парень искалечил немало людей, ушел из дома и сейчас находится на испытательном сроке. В школе столь знатного хулигана все обходят десятой дорогой, да и сам герой не желает ни с кем сближаться. Только одноклассница Вакана Ито верит Аруме и старается вовлечь его в свой «клуб самоцветов», впрочем, без особого успеха. Так бы и жил Тандодзи изгоем, если бы однажды в двери не постучалась рыжая малышка в сопровождении дворецкого.
Гостья по имени Рури оказалась главой корпорации Айба, а попутно координатором борьбы с Аси – каменными демонами, давно угрожающими человечеству. Против демонов мало помогает обычное оружие – нужны воины Света, черпающие силу из волшебных камней. В последующем вихре событий Рури отдает Аруме собственный Камень – в итоге герою удается обуздать гнев и ярость и получить огромную силу, став одним из Священной Семерки избранных. Теперь Арума обречен бороться с силами зла в тесной компании Рури, боевого дворецкого Кагами, целой армии горничных, демона-перебежчика Онигавары и других членов Семерки. А в «клуб самоцветов» герой все-таки вступил!

© Hollow, World Art

Источник рипа: BD-Rip
Автор рипа\энкод: RACER RS
Тип видео: Без хардсаба
Контейнер: AVI
Видео: XviD 64 | 720 x 404 (16:9) | 23,976 fps | 1500 kbps ;

Аудио:
1. RU - VO: AC3 | 48.0 KHz | stereo | 256 Kbps; KroshkaRu & VashMax2
2. JP: AC-3 | 48.0 KHz | stereo | 256 Kbps
Субтитры: Ru - soft [ASS]и[SRT]

Озвучивание: KroshkaRu & VashMax2
Перевод: Advantage & Raney

MediaInfo: - показать
General
Complete name                            : I:\ARRU Rebuild\Sacred Seven (TV) [12 of 12] [BD-Rip] [HWP] [AnimeReactor.ru]\Sacred_Seven_TV_[07_of_12]_(Xvid 720 x 404 AC3x2)_[AnimeReactor].avi
Format                                   : AVI
Format/Info                              : Audio Video Interleave
File size                                : 356 MiB
Duration                                 : 24mn 30s
Overall bit rate                         : 2 028 Kbps
Writing application                      : XviD4PSP 6.0 / 53.31.100

Video
ID                                       : 0
Format                                   : MPEG-4 Visual
Format profile                           : Simple@L5
Format settings, BVOP                    : 2
Format settings, QPel                    : No
Format settings, GMC                     : No warppoints
Format settings, Matrix                  : Default (H.263)
Codec ID                                 : XVID
Codec ID/Hint                            : XviD
Duration                                 : 24mn 30s
Bit rate                                 : 1 500 Kbps
Width                                    : 720 pixels
Height                                   : 404 pixels
Display aspect ratio                     : 16:9
Frame rate                               : 23.976 fps
Color space                              : YUV
Chroma subsampling                       : 4:2:0
Bit depth                                : 8 bits
Scan type                                : Progressive
Compression mode                         : Lossy
Bits/(Pixel*Frame)                       : 0.215
Stream size                              : 263 MiB (74%)
Title                                    : SJIaM
Writing library                          : XviD 64

Audio #1
ID                                       : 1
Format                                   : AC-3
Format/Info                              : Audio Coding 3
Mode extension                           : CM (complete main)
Codec ID                                 : 2000
Duration                                 : 24mn 29s
Bit rate mode                            : Constant
Bit rate                                 : 256 Kbps
Channel(s)                               : 2 channels
Channel positions                        : Front: L R
Sampling rate                            : 48.0 KHz
Bit depth                                : 16 bits
Compression mode                         : Lossy
Stream size                              : 44.8 MiB (13%)
Alignment                                : Aligned on interleaves
Interleave, duration                     : 32 ms (0.77 video frame)
Title                                    : KroshkaRu & VashMax2

Audio #2
ID                                       : 2
Format                                   : AC-3
Format/Info                              : Audio Coding 3
Mode extension                           : CM (complete main)
Codec ID                                 : 2000
Duration                                 : 24mn 30s
Bit rate mode                            : Constant
Bit rate                                 : 256 Kbps
Channel(s)                               : 2 channels
Channel positions                        : Front: L R
Sampling rate                            : 48.0 KHz
Bit depth                                : 16 bits
Compression mode                         : Lossy
Stream size                              : 44.9 MiB (13%)
Alignment                                : Aligned on interleaves
Interleave, duration                     : 32 ms (0.77 video frame)
Title                                    : Original


Скриншоты: - показать

[

Дядя Шарик
Релиз от
источник
ARRU & SeM & VashMax2 & REBUILD ARRU   &   RACER_RS
А вы ничего не забыли?
наверх

Последние поступления