ARRU





Хроника Крыльев
Tsubasa: Reservoir Chronicle (второй сезон) [01 - 26 из 26] [BD-Rip] [1080p]   Bookmark


Скачать вход / регистрация
Тема на форуме Обсудить аниме (комментариев: 116)
Обсуждение раздачи (комментариев: 40)
ОписаниеХроника Крыльев / Tsubasa: Reservoir Chronicle (второй сезон) [01 - 26 из 26] [BD-Rip] [1080p]
Оригинальное название: ツバサ・クロニクル ( 年代記 ) 第2シリーズ
Английское название: Tsubasa Chronicle 2nd Series
Русское название: Хроника Крыльев (сезон второй)
Страна: Япония
Год выпуска / период трансляции: 29.04.2006 по 04.11.2006
Жанр: приключения, романтика, драма, фэнтези
Количество эпизодов ТВ: 26
Продолжительность: 25 мин

Студия:
Режиссёр: Масимо Койти
Сценарий: Кавасаки Хироюки

Описание:
Вселенная Кламп, иной мир… В нем Сакура – принцесса дивной страны Клоу, а Сяоран – молодой археолог, неделями пропадающий на раскопках. Но и в этом мире они встретились и полюбили друг друга. Вот только счастье было недолгим – слишком уж многих привлекает сила, скрытая в принцессе. И пускай посланные убийцы не достигают цели… В пустынных руинах, куда Сакуру занесла сама судьба, за ее спиной вспыхивают радужные Крылья Памяти – и тут же сотнями ярких перьев разлетаются по иным мирам и пространствам.
Чтобы спасти любимую, вернуть ей память, Сяоран должен найти союзников и собрать разлетевшиеся Перья Души – все до одного. Таинственная Ведьма Измерений помогает ему сколотить весьма необычную команду для этой странной миссии. Правда, за услуги Юко требует высокую цену, но герои уверены – оно того стоит. Долгое странствие начинается!

© Hollow,World Art

Названия эпизодов:
01 (27).Опасная Гонка
02 (28).Три Отметки
03 (29).Прекрасная Победа
04 (30).Печальное Чудо
05 (31).Юношеская Решимость
06 (32).Свидание с Волшебником
07 (33).Слово Ашуры
08 (34).Бесконечная Война
09 (35).Две Памяти
10 (36).Чувства, Преодолевшие Время
11 (37).Рисунки Моконы
12 (38).Опасная Дорога
13 (39).Начало Расставания
14 (40).Воронёная Сталь
15 (41).Тайны Библиотеки
16 (42).Преодолевая Воспоминания
17 (43).Пятая Клятва
18 (44).Керо и Мокона
19 (45).Новые Неприятности
20 (46).Суть Хиджитсу
21 (47).Сакура Работает
22 (48).Король Перьев Хаос
23 (49).Запутанное Желание
24 (50).Верные Друзья
25 (51).Замороженный Дух
26 (52).Крылья Будущего


Качество рипа: BD-Rip
Автор рипа: CASO
Тип видео: Без хардсаба
Контейнер: mkv
Видео: Н264 | 23.976 fps |~3200 Kbps | 1920x1080 pixels

Аудио:
RUS: Vorbis | 48000Hz | 96 Kbps | 2ch
JAP: АС3 | 48000Hz | 640 Kbps | 2ch

Озвучивание: Д.Толмачев (1-20) / Анна (21-26)
Cубтитры: RU - soft, ASS [встроенные][www.funsubs.ru]

MediaInfo: - показать

Общее
Формат                                   : Matroska
Версия формата                           : Version 2
Размер файла                             : 733 Мбайт
Продолжительность                        : 25 м.
Режим общего битрейта                    : Переменный
Общий поток                              : 4094 Кбит/сек
Дата кодирования                         : UTC 2012-05-02 08:44:58
Программа кодирования                    : mkvmerge v4.5.0 ('Speed of Light' built on Feb  1 2011 02:10:32
Библиотека кодирования                   : libebml v1.2.0 + libmatroska v1.1.0

Видео
Идентификатор                            : 1
Формат                                   : AVC
Формат/Информация                        : Advanced Video Codec
Профиль формата                          : High@L4.1
Параметр CABAC формата                   : Да
Параметр ReFrames формата                : 3 кадра
Идентификатор кодека                     : V_MPEG4/ISO/AVC
Продолжительность                        : 25 м.
Битрейт                                  : 3277 Кбит/сек
Ширина                                   : 1920 пикселей
Высота                                   : 1080 пикселей
Соотношение сторон                       : 16:9
Частота кадров                           : 23,976 кадра/сек
Цветовое пространство                    : YUV
Субдискретизация насыщенности            : 4:2:0
Битовая глубина                          : 8 бит
Тип развёртки                            : Прогрессивная
Бит/(Пиксели*Кадры)                      : 0.066
Размер потока                            : 586 Мбайт (80%)
Заголовок                                : VIDEO_JP
Библиотека кодирования                   : x264 core 68 r1183M f21daff
Настройки программы                      : cabac=1 / ref=3 / deblock=1:0:0 / analyse=0x3:0x113 / me=umh / subme=8 / psy_rd=1.0:0.0 / mixed_ref=1 / me_range=20 / chroma_me=1 / trellis=2 / 8x8dct=1 / cqm=0 / deadzone=21,11 / chroma_qp_offset=-2 / threads=12 / nr=0 / decimate=1 / mbaff=0 / bframes=3 / b_pyramid=0 / b_adapt=2 / b_bias=0 / direct=3 / wpredb=1 / keyint=250 / keyint_min=25 / scenecut=40 / rc=crf / crf=25.0 / qcomp=0.50 / qpmin=10 / qpmax=51 / qpstep=4 / vbv_maxrate=24000 / vbv_bufsize=9000 / ip_ratio=1.10 / pb_ratio=1.10 / aq=1:1.00
Язык                                     : Japanese
Default                                  : Да
Forced                                   : Нет

Аудио #1
Идентификатор                            : 2
Формат                                   : Vorbis
Параметр Floor формата                   : 1
Идентификатор кодека                     : A_VORBIS
Продолжительность                        : 25 м.
Вид битрейта                             : Переменный
Битрейт                                  : 96,0 Кбит/сек
Каналы                                   : 2 канала
Частота                                  : 48,0 КГц
Метод сжатия                             : С потерями
Размер потока                            : 17,2 Мбайт (2%)
Заголовок                                : Д.Толмачев
Библиотека кодирования                   : aoTuV b5d  (UTC 2009-03-01)
Язык                                     : Russian
Default                                  : Да
Forced                                   : Нет

Аудио #2
Идентификатор                            : 3
Формат                                   : AC-3
Формат/Информация                        : Audio Coding 3
Расширение режима                        : CM (complete main)
Идентификатор кодека                     : A_AC3
Продолжительность                        : 25 м.
Вид битрейта                             : Постоянный
Битрейт                                  : 640 Кбит/сек
Каналы                                   : 2 канала
Расположение каналов                     : Front: L R
Частота                                  : 48,0 КГц
Битовая глубина                          : 16 бит
Метод сжатия                             : С потерями
Задержка видео                           : 24 мс.
Размер потока                            : 115 Мбайт (16%)
Заголовок                                : Original
Язык                                     : Japanese
Default                                  : Нет
Forced                                   : Нет

Текст
Идентификатор                            : 4
Формат                                   : ASS
Идентификатор кодека                     : S_TEXT/ASS
Идентификатор кодека/Информация          : Advanced Sub Station Alpha
Метод сжатия                             : Без потерь
Заголовок                                : Фальгар & Юкос
Язык                                     : Russian
Default                                  : Нет
Forced                                   : Нет


Скриншоты: - показать





От себя:
Спасибо товарищу zsax за предоставленный материал для релиза.
Дядя Шарик
Релиз от
источник
ARRU & REBUILD ARRU   &   Антон & elfina
А вы ничего не забыли?
наверх

Последние поступления