ARRU





Kami Nomi zo Shiru Sekai II/ Одному лишь Богу ведомый мир (TV2)(2010)[01-12 из 12][BD-Rip][720p]   Bookmark


Скачать вход / регистрация
Тема на форуме Обсудить аниме (комментариев: 197)
Обсуждение раздачи (комментариев: 53)
ОписаниеKami Nomi zo Shiru Sekai II/ Одному лишь Богу ведомый мир (TV2)(2010)[01-12 из 12][BD-Rip][720p]
Оригинальное название: Kami nomi zo Shiru Sekai II
Английское название: The World God Only Knows II
Русское название: Одному лишь Богу ведомый мир [ТВ-2]

Страна: Япония
Жанр: комедия, романтика, мистика, школа
Год выхода: 2011
Кол серий: 12 эп
Продолжительность: 25 мин

Студия:Manglobe Inc.
Режиссёр: Такаянаги Сигэхито
Автор оригинала: Вакаки Тамики

Описание:
Кацураги Кейма известен в интернете как «Чарующий Бог». Своё прозвище он получил не просто так… Он способен очаровать любую девушку, хоть принцессу, хоть служанку… Но, только если она двухмерна. В школе же его считают двинутым очкариком. Однажды, Кейма получает смс-ку с предложением заключить контракт на «очарование» всех девушек. Без особых раздумий, он соглашается, посчитав этот контракт за вызов… И демонесса Элси является перед ним во всей своей красе. Она просит его помощи в поимке сбежавших духов, которые прячутся в глубинах девичьих сердец. Единственный способ выселить незванного гостя из сердца… Дать девушке почувствовать любовь. Кацураги отказывается помогать Элси, он утвеждает, что заинтересован лишь в двухмерных девушках, а от трёхмерных его воротит. Увы, контракт уже подписан. У Кеймы нет выбора, он обязан помоган Элси. Если он потерпит неудачу, то на пару с незадачливой демоницей потеряет свою жизнь.
© Xellos Slayer
__________________________________________________________________________
SharkyVan
И снова нас ждет встреча с Кеймой и Элси. Судя по первой серии ничего не изменилось - рисовка, герои остались теми же. Первая арка будет про Касугу - наследницу додзё боевых искусств и суровую девушку, в которой смешались суровость и любовь к кавайным штукам.
В общем, ровное продолжение первого сериала. Позитив полный и, местами, хорошие шутки.

Названия эпизодов:
01. Flower in Bloom
02. Problem Solved by the Fist
03. The Section Chief Cometh
04. Section Chief Regains Her Pride
05. It Always Rains at the End of a Hard Journey
06. 10% Chance of Rain
07. Singing in the Rain
08. First Errand / Tea for Three
09. Nagase-sensei of Second Year Class B
10. School Wars
11. There`s Always a Sun in Your Heart
12. Summer Wars


Качество рипа: BDRip
Автор рипа:AcDie
Тип видео: Без хардсаба
Контейнер: mkv
Видео: AVC (x264) | 1280x720 pixels | 23.976 fps | ~2500 Kbps,


Аудио:
RUS: ACC | 48000Hz | 192 Kbps | 2ch
JAP: Vorbis | 48000Hz | 300 Kbps | 2ch

Озвучивание: Persona99
Перевод: BO3DYX, Редактура / оформление: Nachtwandler

MediaInfo: - показать

Общее
Формат                           : Matroska
Версия формата                   : Version 2
Размер файла                     : 623 Мбайт
Продолжительность                : 23 м.
Режим общего битрейта            : Переменный
Общий поток                      : 3686 Кбит/сек
Название фильма                  : Kami nomi zo Shiru Sekai [01]
Дата кодирования                 : UTC 2012-04-30 06:00:59
Программа кодирования            : mkvmerge v3.4.0 сборка от May 15 2010 09:38:20
Библиотека кодирования           : libebml v0.8.0 + libmatroska v0.9.0

Видео
Идентификатор                    : 1
Формат                           : AVC
Формат/Информация                : Advanced Video Codec
Профиль формата                  : High@L5.0
Параметр CABAC формата           : Да
Параметр ReFrames формата        : 16 кадров
Идентификатор кодека             : V_MPEG4/ISO/AVC
Продолжительность                : 23 м.
Битрейт                          : 3101 Кбит/сек
Ширина                           : 1280 пикселей
Высота                           : 720 пикселей
Соотношение сторон               : 16:9
Частота кадров                   : 23,976 кадра/сек
Цветовое пространство            : YUV
Субдискретизация насыщенности    : 4:2:0
Битовая глубина                  : 8 бит
Тип развёртки                    : Прогрессивная
Бит/(Пиксели*Кадры)              : 0.140
Размер потока                    : 524 Мбайт (84%)
Заголовок                        : AcDie
Библиотека кодирования           : x264 core 115 r1995 c1e60b9
Настройки программы              : >_< / AcDie
Язык                             : Japanese
Default                          : Нет
Forced                           : Нет

Аудио #1
Идентификатор                    : 2
Формат                           : AC-3
Формат/Информация                : Audio Coding 3
Расширение режима                : CM (complete main)
Идентификатор кодека             : A_AC3
Продолжительность                : 23 м.
Вид битрейта                     : Постоянный
Битрейт                          : 192 Кбит/сек
Каналы                           : 2 канала
Расположение каналов             : Front: L R
Частота                          : 48,0 КГц
Битовая глубина                  : 16 бит
Метод сжатия                     : С потерями
Размер потока                    : 32,5 Мбайт (5%)
Заголовок                        : Persona99
Язык                             : Russian
Default                          : Да
Forced                           : Нет

Аудио #2
Идентификатор                    : 3
Формат                           : Vorbis
Параметр Floor формата           : 1
Идентификатор кодека             : A_VORBIS
Продолжительность                : 23 м.
Вид битрейта                     : Переменный
Битрейт                          : 320 Кбит/сек
Каналы                           : 2 канала
Частота                          : 48,0 КГц
Метод сжатия                     : С потерями
Размер потока                    : 54,1 Мбайт (9%)
Заголовок                        : Original
Библиотека кодирования           : libVorbis (Everywhere) (20100325 (Everywhere))
Язык                             : Japanese
Default                          : Нет
Forced                           : Нет

Текст #1
Идентификатор                    : 4
Формат                           : ASS
Идентификатор кодека             : S_TEXT/ASS
Идентификатор кодека/Информация  : Advanced Sub Station Alpha
Метод сжатия                     : Без потерь
Заголовок                        : Надписи (Advantage)
Язык                             : Russian
Default                          : Да
Forced                           : Нет

Текст #2
Идентификатор                    : 5
Формат                           : ASS
Идентификатор кодека             : S_TEXT/ASS
Идентификатор кодека/Информация  : Advanced Sub Station Alpha
Метод сжатия                     : Без потерь
Заголовок                        : Advantage
Язык                             : Russian
Default                          : Нет
Forced                           : Нет

Меню
00:00:00.000                     : enrologue
00:01:34.011                     : en:Opening
00:03:03.975                     : en:Main Part
00:21:51.644                     : en:Ending
00:23:21.650                     : en:Epilogue


Скриншоты: - показать



От себя:
Данный релиз был был предоставлен товарищем Aglenn, за что ему огромное спасибо.
Дядя Шарик
Релиз от
источник
ARRU & Get Smart & REBUILD ARRU
А вы ничего не забыли?
наверх

Последние поступления