ARRU





Хроника Крыльев
Tsubasa: Reservoir Chronicle (первый сезон) [01 - 26 из 26] [BD-Rip] [1080p]   Bookmark


Скачать вход / регистрация
Тема на форуме Обсудить аниме (комментариев: 116)
Обсуждение раздачи (комментариев: 74)
ОписаниеХроника Крыльев / Tsubasa: Reservoir Chronicle (первый сезон) [01 - 26 из 26] [BD-Rip] [1080p]
Оригинальное название: ツバサ・クロニクル ( 年代記 )
Английское название: Tsubasa Reservoir Chronicles
Русское название: Хроника Крыльев (сезон первый)
Страна: Япония
Год выпуска / период трансляции: c 09.04.2005 по 15.10.2005
Жанр: приключения, романтика, драма, фэнтези
Количество эпизодов ТВ: 26
Продолжительность: 25 мин

Студия:
Режиссёр: Масимо Койти
Сценарий: Кавасаки Хироюки

Описание:
Вселенная Кламп, иной мир… В нем Сакура – принцесса дивной страны Клоу, а Сяоран – молодой археолог, неделями пропадающий на раскопках. Но и в этом мире они встретились и полюбили друг друга. Вот только счастье было недолгим – слишком уж многих привлекает сила, скрытая в принцессе. И пускай посланные убийцы не достигают цели… В пустынных руинах, куда Сакуру занесла сама судьба, за ее спиной вспыхивают радужные Крылья Памяти – и тут же сотнями ярких перьев разлетаются по иным мирам и пространствам.
Чтобы спасти любимую, вернуть ей память, Сяоран должен найти союзников и собрать разлетевшиеся Перья Души – все до одного. Таинственная Ведьма Измерений помогает ему сколотить весьма необычную команду для этой странной миссии. Правда, за услуги Юко требует высокую цену, но герои уверены – оно того стоит. Долгое странствие начинается!

© Hollow,World Art

Названия эпизодов:
01. Неизбежное Встреча
02. Сила для Боя
03. Меч, Разгоняющий Зло
04. Безгрешный Бродяга
05. Битва Магов
06. Не Пролитые Слёзы
07. Провалы Памяти
08. Любимая Дочь Бога
09. Очаровательная Леди
10. Зеркало Разлуки
11. Избранные Завтра
12. Тёплая Улыбка
13. Повелитель Иллюзий
14. Восстановление Истины
15. Вера в Сердце
16. Сила и Доброта
17. Работа в Кафе
18. Котята и Щенята
19. Жизненное Решение
20. Вечернее Фортепиано
21. Истинное Лицо ОНИ
22. Не Стираемая Память
23. Исчезающая Жизнь
24. Поединок до Смерти
25. Завершающая Игра
26. Последнее Желание


Качество рипа: BD-Rip
Автор рипа: CASO
Тип видео: Без хардсаба
Контейнер: mkv
Видео: Н264 | 23.976 fps | 3147 Kbps | 1920x1080 pixels

Аудио:
RUS1: AAC | 48000Hz | 151 Kbps | 2ch; Little_Polka & Retto & Koyl Van (01-26 из 26)
RUS2: Vorbis | 48000Hz | 98 Kbps | 2ch; E. Лурье (1-18) / Харука (19-26)
JAP: АС3 | 48000Hz | 640 Kbps | 2ch

Cубтитры: RU - soft, ASS [встроенные][DB_L-E, A-F & Solar]

MediaInfo: - показать

Общее
Формат                                   : Matroska
Версия формата                           : Version 2
Размер файла                             : 721 Мбайт
Продолжительность                        : 25 м.
Режим общего битрейта                    : Переменный
Общий поток                              : 4027 Кбит/сек
Название фильма                          : The Inevitable Encounter
Дата кодирования                         : UTC 2012-04-23 16:06:06
Программа кодирования                    : mkvmerge v4.5.0 ('Speed of Light' built on Feb  1 2011 02:10:32
Библиотека кодирования                   : libebml v1.2.0 + libmatroska v1.1.0

Видео
Идентификатор                            : 1
Формат                                   : AVC
Формат/Информация                        : Advanced Video Codec
Профиль формата                          : High@L4.1
Параметр CABAC формата                   : Да
Параметр ReFrames формата                : 3 кадра
Идентификатор кодека                     : V_MPEG4/ISO/AVC
Продолжительность                        : 25 м.
Ширина                                   : 1920 пикселей
Высота                                   : 1080 пикселей
Соотношение сторон                       : 16:9
Частота кадров                           : 23,976 кадра/сек
Цветовое пространство                    : YUV
Субдискретизация насыщенности            : 4:2:0
Битовая глубина                          : 8 бит
Тип развёртки                            : Прогрессивная
Заголовок                                : VIDEO_JP
Библиотека кодирования                   : x264 core 68 r1183M f21daff
Настройки программы                      : cabac=1 / ref=3 / deblock=1:0:0 / analyse=0x3:0x113 / me=umh / subme=7 / psy_rd=1.0:0.0 / mixed_ref=1 / me_range=12 / chroma_me=1 / trellis=2 / 8x8dct=1 / cqm=0 / deadzone=21,11 / chroma_qp_offset=-2 / threads=6 / nr=0 / decimate=1 / mbaff=0 / bframes=3 / b_pyramid=0 / b_adapt=2 / b_bias=0 / direct=3 / wpredb=1 / keyint=250 / keyint_min=25 / scenecut=40 / rc=crf / crf=24.5 / qcomp=0.50 / qpmin=10 / qpmax=51 / qpstep=4 / ip_ratio=1.10 / pb_ratio=1.10 / aq=1:1.00
Язык                                     : Japanese
Default                                  : Да
Forced                                   : Нет

Аудио #1
Идентификатор                            : 2
Формат                                   : AAC
Формат/Информация                        : Advanced Audio Codec
Профиль формата                          : LC
Идентификатор кодека                     : A_AAC
Продолжительность                        : 25 м.
Каналы                                   : 2 канала
Расположение каналов                     : Front: L R
Частота                                  : 48,0 КГц
Метод сжатия                             : С потерями
Заголовок                                : Little_Polka & Retto & Koyl Van
Язык                                     : Russian
Default                                  : Да
Forced                                   : Нет

Аудио #2
Идентификатор                            : 3
Формат                                   : Vorbis
Параметр Floor формата                   : 1
Идентификатор кодека                     : A_VORBIS
Продолжительность                        : 25 м.
Вид битрейта                             : Переменный
Битрейт                                  : 96,0 Кбит/сек
Каналы                                   : 2 канала
Частота                                  : 48,0 КГц
Метод сжатия                             : С потерями
Размер потока                            : 17,2 Мбайт (2%)
Заголовок                                : Е.Лурье
Библиотека кодирования                   : aoTuV b5d  (UTC 2009-03-01)
Язык                                     : Russian
Default                                  : Нет
Forced                                   : Нет

Аудио #3
Идентификатор                            : 4
Формат                                   : AC-3
Формат/Информация                        : Audio Coding 3
Расширение режима                        : CM (complete main)
Идентификатор кодека                     : A_AC3
Продолжительность                        : 25 м.
Вид битрейта                             : Постоянный
Битрейт                                  : 640 Кбит/сек
Каналы                                   : 2 канала
Расположение каналов                     : Front: L R
Частота                                  : 48,0 КГц
Битовая глубина                          : 16 бит
Метод сжатия                             : С потерями
Задержка видео                           : 24 мс.
Размер потока                            : 115 Мбайт (16%)
Заголовок                                : Original
Язык                                     : Japanese
Default                                  : Нет
Forced                                   : Нет

Текст
Идентификатор                            : 5
Формат                                   : ASS
Идентификатор кодека                     : S_TEXT/ASS
Идентификатор кодека/Информация          : Advanced Sub Station Alpha
Метод сжатия                             : Без потерь
Заголовок                                : unvasily
Язык                                     : Russian
Default                                  : Нет
Forced                                   : Нет


Скриншоты: - показать

 



От себя:
Спасибо товарищу Aglenn за предоставленный материал для релиза.
Дядя Шарик
Релиз от
источник
ARRU & Netlab AnimaGroup & Polka Production & REBUILD ARRU
А вы ничего не забыли?
наверх

Последние поступления