ARRU





Kurenai
Курэнай [01-12 из 12][BDRip][HWP]   Bookmark


Скачать вход / регистрация
Тема на форуме Обсудить аниме (комментариев: 29)
Обсуждение раздачи (комментариев: 35)
ОписаниеKurenai / Курэнай [01-12 из 12][BDRip][HWP]
Оригинальное название:
Английское название: Kure-nai
Русское название: Курэнай
Страна: Япония
Год выпуска / период трансляции: c 04.04.2008 по 20.06.2008
Жанр: приключения, комедия, драма
Количество эпизодов: 12
Продолжительность: 25 мин  
Студия: BRAINS
Режиссёр: Мацуо Ко
Автор оригинала: Катаяма Кэнтаро

Описание:
Синкуро Курэнай – сирота, он учится в старшей школе, изучает боевые искусства и не брезгует разнообразными подработками, в том числе опасными: отваживает рэкетиров, ловит хулиганов и пр. И вот его работодатель, экстравагантная и рисковая Бэника-сама, предлагает Синкуро новое дело – защиту маленькой Мурасаки Кухоин, дочери авторитетного якудзы. Казалось бы, для Синкуро это работа «по профилю», однако, помимо безопасности барышни Мурасаки, на юного телохранителя ложатся совершенно непривычные для него обязанности по уходу-кормлению-купанию-вразумлению своенравной шестилетки...

© Анастасия Розанова, World Art

Источник рипа: BD-Rip
Автор рипа\энкод: RACER RS
Тип видео: Без хардсаба
Контейнер: AVI
Видео: XviD 64 | 720 x 404 (16:9) | 23,976 fps | до 1400 kbps ;

Аудио:
1. RU - VO: AC3 | 48.0 KHz | stereo | 256 Kbps; Ryc99
2. JP: AC-3 | 48.0 KHz | stereo | 256 Kbps

Субтитры: Ru - soft [ASS]и[SRT]
Перевод: NaKaMa-SuBs
Редактор и оформитель: Venom
перевод OP: Silver Flower
Караоке: Xyanide
Перевод ED1-ED2: Kintaro
Работа со звуком: Ryc99 & JaneDoe


MediaInfo: - показать
General
Complete name                            : I:\ARRU Rebuild\Kurenai (TV) [12 of 12] [BD-Rip] [HWP] [AnimeReactor.ru]\Kurenai TV [12 of 12] (Xvid 720 x 404) Ryc99 & Animereactor.avi
Format                                   : AVI
Format/Info                              : Audio Video Interleave
File size                                : 335 MiB
Duration                                 : 24mn 10s
Overall bit rate                         : 1 939 Kbps
Writing application                      : XviD4PSP 6.0 / 53.31.100

Video
ID                                       : 0
Format                                   : MPEG-4 Visual
Format profile                           : Simple@L5
Format settings, BVOP                    : 2
Format settings, QPel                    : No
Format settings, GMC                     : No warppoints
Format settings, Matrix                  : Default (H.263)
Codec ID                                 : XVID
Codec ID/Hint                            : XviD
Duration                                 : 24mn 10s
Bit rate                                 : 1 410 Kbps
Width                                    : 720 pixels
Height                                   : 404 pixels
Display aspect ratio                     : 16:9
Frame rate                               : 23.976 fps
Color space                              : YUV
Chroma subsampling                       : 4:2:0
Bit depth                                : 8 bits
Scan type                                : Progressive
Compression mode                         : Lossy
Bits/(Pixel*Frame)                       : 0.202
Stream size                              : 244 MiB (73%)
Writing library                          : XviD 64

Audio #1
ID                                       : 1
Format                                   : AC-3
Format/Info                              : Audio Coding 3
Mode extension                           : CM (complete main)
Codec ID                                 : 2000
Duration                                 : 24mn 10s
Bit rate mode                            : Constant
Bit rate                                 : 256 Kbps
Channel(s)                               : 2 channels
Channel positions                        : Front: L R
Sampling rate                            : 48.0 KHz
Bit depth                                : 16 bits
Compression mode                         : Lossy
Stream size                              : 44.3 MiB (13%)
Alignment                                : Aligned on interleaves
Interleave, duration                     : 32 ms (0.77 video frame)
Title                                    : Ryc99

Audio #2
ID                                       : 2
Format                                   : AC-3
Format/Info                              : Audio Coding 3
Mode extension                           : CM (complete main)
Codec ID                                 : 2000
Duration                                 : 24mn 10s
Bit rate mode                            : Constant
Bit rate                                 : 256 Kbps
Channel(s)                               : 2 channels
Channel positions                        : Front: L R
Sampling rate                            : 48.0 KHz
Bit depth                                : 16 bits
Compression mode                         : Lossy
Stream size                              : 44.3 MiB (13%)
Alignment                                : Aligned on interleaves
Interleave, duration                     : 32 ms (0.77 video frame)
Title                                    : Japanese Audio


Скриншоты: - показать



Дядя Шарик
Релиз от
источник
ARRU & REBUILD ARRU & Ryc99   &   RACER_RS
А вы ничего не забыли?
наверх

Последние поступления