ARRU





Canaan
Ханаан (2009)[01-13 из 13][BD-Rip][HWP]   Bookmark


Скачать вход / регистрация
Тема на форуме Обсудить аниме (комментариев: 63)
Обсуждение раздачи (комментариев: 38)
ОписаниеCanaan / Ханаан (2009)[01-13 из 13][BD-Rip][HWP]
Оригинальное название: カナン
Английское название: Canaan / 428 the animation
Русское название: Ханаан
Страна: Япония
Трансляции: c 04.07.2009 по 26.09.2009
Жанр: приключения
Категория: TV
Количество эпизодов: 13
Продолжительность: 25 мин.
Режиссёр: Андо Масахиро
Автор оригинала:Насу Киноко
Студия:


Описание:
Синдикат «Хэби» свирепствует в Юго-Восточной Азии, занимаясь убийствами, терактами и более серьезными делами. Но спецслужбам повезло: в Пакистане удается арестовать главу синдиката – таинственную Альфард, которую этапируют в Шанхай, где на ней «висит» куда больше преступлений. Кроме спецслужб, в логове синдиката главу бандитов ждет Ханаан – одинокая «охотница за головами», приехавшая ради кровной мести. Но охотница, ведомая собственным кодексом, не стреляет во врага, пока та беспомощна и окружена агентами. Она знает, что «на своем поле» Альфард недолго пробудет в заключении, после чего можно будет встретиться в честном поединке.
Тем временем, в Шанхай на фестиваль и конференцию по борьбе с терроризмом прибывают репортер Минору и фотограф Мария. В праздничной суете они разделяются, и Мария вдруг попадет в гущу боя, откуда ее спасает Ханаан – как выясняется, старая знакомая. Теперь Ханаан засветилась, и Лян Ци – верная подручная Альфард - вынуждена делить внимание между спасением босса и уничтожением старого врага. А ликующая толпа среди треска петард не обращает внимания ни на выстрелы, ни на то, что среди них уже умирают жертвы страшной эпидемии. Кто же победит в «битве во время чумы»?
© Hollow

Названия эпизодов:
01. Crimson Shanghai
02. A Cruel Game
03. A Trivial Matter
04. Growing Dark
05. Lights
06. Love & Piece
07. Gravestone
08. Request
09. Flower of the Past
10. Lost
11. Thoughts
12. Seasonal Train
13. Land of Hope


Источник рипа: BD-Rip [Yousei-raws]
Автор рипа\энкод: Renmei Rei
Тип видео: Без хардсаба
Контейнер: AVI
Видео: XviD (Build 64) | 720 x 404 пикселей | 23,976 кадра/сек | ~1600-1700 Кбит/сек ;

Аудио:
RUS: AC-3 | 48.0 КГц | стерео | 256 Кбит/сек;
JAP:  AC-3 | 48.0 КГц | 6 каналов | 448 Кбит/сек

Субтитры: русские \ встроенные [SSA,SRT][Antravoco]
Перевод: Antravoco
Озвучивание: Persona99 & MaxDamage

MediaInfo: - показать
Общее
Полное имя                               : R:\Video\HWP\Canaan\Canaan [01 of 13][BDRip][720 x 404 XviD AC3x2][GetSmart & AnimeReactor.ru].avi
Формат                                   : AVI
Формат/Информация                        : Audio Video Interleave
Размер файла                             : 398 Мбайт
Продолжительность                        : 23 м.
Общий поток                              : 2327 Кбит/сек
Программа кодирования                    : VirtualDubModRus 1.5.10.2 (build 2542/release)
Библиотека кодирования                   : VirtualDubMod build 2542/release

Видео
Идентификатор                            : 0
Формат                                   : MPEG-4 Visual
Профиль формата                          : Advanced Simple@L5
Параметр BVOP формата                    : 2
Параметр QPel формата                    : Нет
Параметр GMC формата                     : Без точки перехода
Параметр матрицы формата                 : Default (H.263)
Идентификатор кодека                     : XVID
Идентификатор кодека/Подсказка           : XviD
Продолжительность                        : 23 м.
Битрейт                                  : 1609 Кбит/сек
Ширина                                   : 720 пикселей
Высота                                   : 404 пикселя
Соотношение сторон                       : 16:9
Частота кадров                           : 23,976 кадра/сек
Цветовое пространство                    : YUV
Субдискретизация насыщенности            : 4:2:0
Битовая глубина                          : 8 бит
Тип развёртки                            : Прогрессивная
Метод сжатия                             : С потерями
Бит/(Пиксели*Кадры)                      : 0.231
Размер потока                            : 275 Мбайт (69%)
Библиотека кодирования                   : XviD 64

Аудио #1
Идентификатор                            : 1
Формат                                   : AC-3
Формат/Информация                        : Audio Coding 3
Расширение режима                        : CM (complete main)
Параметр Endianness формата              : Big
Идентификатор кодека                     : 2000
Продолжительность                        : 23 м.
Вид битрейта                             : Постоянный
Битрейт                                  : 256 Кбит/сек
Каналы                                   : 2 канала
Расположение каналов                     : Front: L R
Частота                                  : 48,0 КГц
Битовая глубина                          : 16 бит
Метод сжатия                             : С потерями
Размер потока                            : 43,8 Мбайт (11%)
Выравнивание                             : Разделение по промежуткам
Продолжительность промежутка             : 42  мс. (1,00 видеокадр)
Время предзагрузки промежутка            : 500  мс.
Заголовок                                : Russian [Persona99 & MaxDamage]

Аудио #2
Идентификатор                            : 2
Формат                                   : AC-3
Формат/Информация                        : Audio Coding 3
Расширение режима                        : CM (complete main)
Параметр Endianness формата              : Big
Идентификатор кодека                     : 2000
Продолжительность                        : 23 м.
Вид битрейта                             : Постоянный
Битрейт                                  : 448 Кбит/сек
Каналы                                   : 6 каналов
Расположение каналов                     : Front: L C R, Side: L R, LFE
Частота                                  : 48,0 КГц
Битовая глубина                          : 16 бит
Метод сжатия                             : С потерями
Размер потока                            : 76,7 Мбайт (19%)
Выравнивание                             : Разделение по промежуткам
Продолжительность промежутка             : 42  мс. (1,00 видеокадр)
Время предзагрузки промежутка            : 500  мс.
Заголовок                                : Japanese [Original]


Скриншоты: - показать


Дядя Шарик
Релиз от
источник
ARRU & Get Smart & RenmeiRei & REBUILD ARRU
А вы ничего не забыли?
наверх

Последние поступления