ARRU





IS: Infinite Stratos
Необъятные небеса (2011)[1-12 of 12][BDRip][HWP]   Bookmark


Скачать вход / регистрация
Тема на форуме Обсудить аниме (комментариев: 1084)
Обсуждение раздачи (комментариев: 104)
ОписаниеIS: Infinite Stratos / Необъятные небеса (2011)[1-12 of 12][BDRip][HWP]
Оригинальное название: IS<インフィニット・ストラトス>
Английское название: IS: Infinite Stratos
Русское название: Необъятные небеса
Страна: Япония
Год выпуска / период трансляции: 2011
Жанр: приключения
Количество эпизодов: 12
Продолжительность: 25 мин  
Студия: 8bit
Режиссёр: Кикути Ясухито
Автор оригинала: Юмидзуру Идзуру

Описание:
В ближайшем будущем в Японии (где же еще?) изобрели чудесный боевой костюм, оператор которого получал огромную силу, скорость, могучую защиту и целый арсенал встроенного оружия. Человек становился подобен универсальному истребителю, потому костюм получил название «Небесный Доспех», сокращенно НД. Если учесть, что пилот мог активировать костюм силой мысли, а талантов хватало в каждой стране, то станет ясно, почему войны прекратились, а НД занял нишу «оружия сдерживания». Теперь работы по его развитию велись под благовидным предлогом «мирного применения», к примеру, в спортивных состязаниях, где участвовали представители всех наций. Точнее, представительницы, поскольку активировать Доспех могли только женщины!

В обществе, целиком зависящем от чудо-техники, снова воцарился матриархат. Но спустя десяток лет с открытия Доспеха мир потрясла новая сенсация – нашелся первый мужчина, способный стать его пилотом! И вот Итика Оримура, 15-летний герой поневоле, стараниями японского правительства поступил в Небесную академию, где учатся самые талантливые пилоты со всего мира. Теперь Итике, единственному парню среди сильных и агрессивных красавиц, нужно постоять за честь безвинно пострадавшего «слабого пола», разобраться с подругами детства, укрепить э-э… международные связи, а еще ведь и учиться когда-то надо!

© Hollow

Источник рипа: BD-Rip [Coalgirls]
Автор рипа\энкод: RACER RS
Тип видео: Без хардсаба
Контейнер: AVI
Видео: XviD 64 | 720 x 404 (16:9) | 23,976 fps | до 1382 kbps ;

Аудио:
1. RU - VO: AC3 | 48.0 KHz | stereo | 256 Kbps; Eladiel & Lupin
1. RU - VO: AC3 | 48.0 KHz | stereo | 256 Kbps; Persona99
3. JP: AC-3 | 48.0 KHz | stereo | 256 Kbps

Субтитры: Ru - soft [ASS]и[SRT]
Перевод:Jenia aka Zub
Редактор: Yuliii
Оформление: Inhesion
Лирика: AlenFuns

MediaInfo: - показать
General
Complete name                            : I:\ARRU Rebuild\IS Infinite Stratos (TV) [12 of 12] [BD-Rip] [HWP] [AnimeReactor.ru]\IS_-_Infinite_Stratos_TV_[01_of_12]_[ru_jp]_[Animereactor_ru].avi
Format                                   : AVI
Format/Info                              : Audio Video Interleave
File size                                : 372 MiB
Duration                                 : 24mn 11s
Overall bit rate                         : 2 150 Kbps
Writing application                      : XviD4PSP 6.0 / 53.31.100

Video
ID                                       : 0
Format                                   : MPEG-4 Visual
Format profile                           : Simple@L5
Format settings, BVOP                    : 2
Format settings, QPel                    : No
Format settings, GMC                     : No warppoints
Format settings, Matrix                  : Default (H.263)
Codec ID                                 : XVID
Codec ID/Hint                            : XviD
Duration                                 : 24mn 10s
Bit rate                                 : 1 359 Kbps
Width                                    : 720 pixels
Height                                   : 404 pixels
Display aspect ratio                     : 16:9
Frame rate                               : 23.976 fps
Color space                              : YUV
Chroma subsampling                       : 4:2:0
Bit depth                                : 8 bits
Scan type                                : Progressive
Compression mode                         : Lossy
Bits/(Pixel*Frame)                       : 0.195
Stream size                              : 235 MiB (63%)
Title                                    : 01 - All my Classmates are Girls [ARRU Rebuild](RACER RS)
Writing library                          : XviD 64

Audio #1
ID                                       : 1
Format                                   : AC-3
Format/Info                              : Audio Coding 3
Mode extension                           : CM (complete main)
Codec ID                                 : 2000
Duration                                 : 24mn 9s
Bit rate mode                            : Constant
Bit rate                                 : 256 Kbps
Channel(s)                               : 2 channels
Channel positions                        : Front: L R
Sampling rate                            : 48.0 KHz
Bit depth                                : 16 bits
Compression mode                         : Lossy
Stream size                              : 44.2 MiB (12%)
Alignment                                : Aligned on interleaves
Interleave, duration                     : 32 ms (0.77 video frame)
Title                                    : Eladiel & Lupin

Audio #2
ID                                       : 2
Format                                   : AC-3
Format/Info                              : Audio Coding 3
Mode extension                           : CM (complete main)
Codec ID                                 : 2000
Duration                                 : 24mn 10s
Bit rate mode                            : Constant
Bit rate                                 : 256 Kbps
Channel(s)                               : 2 channels
Channel positions                        : Front: L R
Sampling rate                            : 48.0 KHz
Bit depth                                : 16 bits
Compression mode                         : Lossy
Stream size                              : 44.3 MiB (12%)
Alignment                                : Aligned on interleaves
Interleave, duration                     : 32 ms (0.77 video frame)
Title                                    : Persona99

Audio #3
ID                                       : 3
Format                                   : AC-3
Format/Info                              : Audio Coding 3
Mode extension                           : CM (complete main)
Codec ID                                 : 2000
Duration                                 : 24mn 11s
Bit rate mode                            : Constant
Bit rate                                 : 256 Kbps
Channel(s)                               : 2 channels
Channel positions                        : Front: L R
Sampling rate                            : 48.0 KHz
Bit depth                                : 16 bits
Compression mode                         : Lossy
Stream size                              : 44.3 MiB (12%)
Alignment                                : Aligned on interleaves
Interleave, duration                     : 32 ms (0.77 video frame)
Title                                    : Original





Скриншоты: - показать


Дядя Шарик
Релиз от
источник
ARRU & Get Smart & REBUILD ARRU   &   RACER_RS
А вы ничего не забыли?
наверх

Последние поступления