ARRU





Amagami SS TV-1
Амагами СС (первый сезон)(2010)[01-25 из 25 + 1-7 из 7 спэшлов][BDRip][HWP]   Bookmark


Скачать вход / регистрация
Тема на форуме Обсудить аниме (комментариев: 134)
Обсуждение раздачи (комментариев: 7)
ОписаниеAmagami SS TV-1 / Амагами СС (первый сезон)(2010)[01-25 из 25 + 1-7 из 7 спэшлов][BDRip][HWP]
Оригинальное название: アマガミSS
Английское название: Amagami SS
Русское название: Амагами СС [ТВ-1]
Страна: Япония
Год выпуска: 2010
Жанр: романтика, школа
Категория: TV
Количество эпизодов: 25 эп + 7 сп.
Продолжительность: 25 минут
Режиссёр: Хирайкэ Ёсимаса
Сценарий: Хирайкэ Ёсимаса
Студия:


Описание:
Каждый выбирает по себе… Сделать выбор – самое сложное в жизни молодого человека, и это в полной мере испытал 17-летний Дзюнъити Татибана, тихий и скромный японский школьник. Однажды обжегшись в отношениях с прекрасным полом, Дзюн долго «дул на молоко», ограничиваясь картинками и личным планетарием, который оборудовал в собственном стенном шкафу. Но в шкафу вечно не просидишь – природа берет свое, и главный герой обнаруживает, что плодотворно общаться можно не только с книгами, лучшим другом и младшей сестренкой.

Старшая школа – неиссякаемый источник и опорный камень аниме – так полна соблазнов! Что делать, когда с тобой заговаривает красавица Харука – пусть школьный идол, но приятная в общении и нисколько не зазнающаяся старшеклассница? А может, стоит взглянуть на милую скромницу Саэ, с которой вроде бы свела сама судьба? Или принять вызов Ай – сильной и уверенной в себе спортсменки, да еще подруги сестры? Хотя зачем ходить далеко – ведь в классе есть «своя в доску» бесшабашная Каору, а еще простая и веселая Рихоко? Да и как понимать взгляды старосты Цукасы – по виду типичной отличницы, а вот иногда такое проскакивает… В общем, проблем у Дзюна хватает, а как он будет с ними разбираться, сможет ли вырасти и стать мужчиной – нам покажут авторы аниме!
© Hollow

Названия эпизодов:
01. Моришима Харука - Часть 1: Желание
02. Моришима Харука - Часть 2: Сближение
03. Моришима Харука - Часть 3: Ревность
04. Моришима Харука - Часть 4: Роман
05. Танамачи Каору - Часть 1: Плохой друг
06. Танамачи Каору - Часть 2: Замешательство
07. Танамачи Каору - Часть 3: Предательство
08. Танамачи Каору - Часть 4: Прогресс
09. Наката Сая - Часть 1: Младшая
10. Наката Сая - Часть 2: Тренировка
11. Наката Сая - Часть 3: Изменения
12. Наката Сая - Часть 4: Влюбленные
13. Нанасаки Ай - Часть 1: Наихудший
14. Нанасаки Ай - Часть 2: Сердцебиение
15. Нанасаки Ай - Часть 3: Превращение
16. Нанасаки Ай - Часть 4: Признание
17. Сакурай Рихоко - Часть 1: Воспоминания
18. Сакурай Рихоко - Часть 2: Помощник
19. Сакурай Рихоко - Часть 3: Последовательность
20. Сакурай Рихоко - Часть 4: Прощай
21. Аяцуджи Цукаса - Часть 1: Открытие
22. Аяцуджи Цукаса - Часть 2: Изнанка
23. Аяцуджи Цукаса - Часть 3: Гордость
24. Аяцуджи Цукаса - Часть 4: Обещание
25. Камизаки Риса: Правда
26. (Special 0) Тачибана Мия: Младшая сестра
27. (Special 1) Глава Моришима Харука
28. (Special 2) Глава Танамачи Каору
29. (Special 3) Глава Наката Сая
30. (Special 4) Глава Нанасаки Ай
31. (Special 5) Глава Сакурай Рихоко
32. (Special 6) Глава Аяцуджи Цукаса


Источник рипа: BD-Rip [ANE]
Автор рипа\энкод: Renmei Rei
Тип видео: Без хардсаба
Контейнер: AVI
Видео: XviD (Build 64) | 720 x 404 pixels | 23,976 fps | ~1600 kbps ;

Аудио:
RUS: AC-3 | 48.0 KHz | stereo | 192 Kbps;
JAP:  AC-3 | 48.0 KHz | stereo | 256 Kbps

Субтитры: RU - soft [SRT, SSA][Someone, Powerwar]
Перевод/лирика: Someone
Hедактор/оформление: Powerwar [Dreamers Team]
Озвучивание: Ryc99

MediaInfo: - показать
Общее
Полное имя                               : R:\Video\HWP\Amagami SS\AmagamiSS [01 of 25][BD-Rip][720 x 404 XviD AC3][Ryc99 & Animereactor].avi
Формат                                   : AVI
Формат/Информация                        : Audio Video Interleave
Размер файла                             : 364 Мбайт
Продолжительность                        : 24 м.
Общий поток                              : 2103 Кбит/сек
Программа кодирования                    : VirtualDubModRus 1.5.10.2 (build 2542/release)
Библиотека кодирования                   : VirtualDubMod build 2542/release

Видео
Идентификатор                            : 0
Формат                                   : MPEG-4 Visual
Профиль формата                          : Advanced Simple@L5
Параметр BVOP формата                    : 2
Параметр QPel формата                    : Нет
Параметр GMC формата                     : Без точки перехода
Параметр матрицы формата                 : Default (H.263)
Идентификатор кодека                     : XVID
Идентификатор кодека/Подсказка           : XviD
Продолжительность                        : 24 м.
Битрейт                                  : 1641 Кбит/сек
Ширина                                   : 720 пикселей
Высота                                   : 404 пикселя
Соотношение сторон                       : 16:9
Частота кадров                           : 23,976 кадра/сек
Цветовое пространство                    : YUV
Субдискретизация насыщенности            : 4:2:0
Битовая глубина                          : 8 бит
Тип развёртки                            : Прогрессивная
Метод сжатия                             : С потерями
Бит/(Пиксели*Кадры)                      : 0.235
Размер потока                            : 284 Мбайт (78%)
Библиотека кодирования                   : XviD 64

Аудио #1
Идентификатор                            : 1
Формат                                   : AC-3
Формат/Информация                        : Audio Coding 3
Расширение режима                        : CM (complete main)
Параметр Endianness формата              : Big
Идентификатор кодека                     : 2000
Продолжительность                        : 24 м.
Вид битрейта                             : Постоянный
Битрейт                                  : 192 Кбит/сек
Каналы                                   : 2 канала
Расположение каналов                     : Front: L R
Частота                                  : 48,0 КГц
Битовая глубина                          : 16 бит
Метод сжатия                             : С потерями
Размер потока                            : 33,2 Мбайт (9%)
Выравнивание                             : Разделение по промежуткам
Продолжительность промежутка             : 42  мс. (1,00 видеокадр)
Время предзагрузки промежутка            : 500  мс.
Заголовок                                : Russian [Ryc99]

Аудио #2
Идентификатор                            : 2
Формат                                   : AC-3
Формат/Информация                        : Audio Coding 3
Расширение режима                        : CM (complete main)
Параметр Endianness формата              : Big
Идентификатор кодека                     : 2000
Продолжительность                        : 24 м.
Вид битрейта                             : Постоянный
Битрейт                                  : 256 Кбит/сек
Каналы                                   : 2 канала
Расположение каналов                     : Front: L R
Частота                                  : 48,0 КГц
Битовая глубина                          : 16 бит
Метод сжатия                             : С потерями
Размер потока                            : 44,3 Мбайт (12%)
Выравнивание                             : Разделение по промежуткам
Продолжительность промежутка             : 42  мс. (1,00 видеокадр)
Время предзагрузки промежутка            : 500  мс.
Заголовок                                : Japanese [Original]


Скриншоты: - показать




Комментарий: Рип был перезалит. По причине отсутствия русской дорожки в 14-том эпизоде. Прошу прощение за неудобства.
Дядя Шарик
Релиз от
источник
ARRU & RenmeiRei & REBUILD ARRU & Ryc99
А вы ничего не забыли?
наверх

Последние поступления