ARRU





Ultra Maniac
Ультраманьяк (2003)[1-26 из 26][DVD-Rip][HWP]   Bookmark


Скачать вход / регистрация
Тема на форуме Обсудить аниме (комментариев: 2)
Обсуждение раздачи (комментариев: 3)
ОписаниеUltra Maniac / Ультраманьяк (2003)[1-26 из 26][DVD-Rip][HWP]
Оригинальное название: ウルトラマニアック
Английское название: Ultra Maniac
Русское название: Ультраманьяк
Страна: Япония
Год выпуска / период трансляции: c 20.05.2003 по 11.11.2003
Жанр: махо-сёдзё, комедия, романтика, сёдзё
Возрастное ограничение: нет
Категория: TV
Количество эпизодов: 26 эп.
Продолжительность:  23 мин.
Режиссёр: Масаки Синъити
Автор оригинала:  Ёсидзуми Ватару
Студия:



Описание:
Нина Сакура - волшебница, прибывшая в мир людей из Волшебного Королевства, чтобы повысить свой уровень волшебства. Для этого ей надо найти все пять волшебных камня.
Появилась она очень оригинальным способом... Нет, не на метле, как все ведьмы. Это уже прошлое. Современные волшебники летают на... самокатах и креслах-качалках, а вместо волшебных палочек используют карманные компьютеры. Именно на самокате, которым к тому же не умела управлять, она впервые встретилась с красавицей Такейши Аю. Правда не совсем традиционным способом: зависшая в воздухе, да еще и вверх ногми, зато с невинной улыбочкой на лице. Естественно, Аю-чан очень "обрадовалась" этой встрече. Через секунду от нее осталось лишь облако пыли. Но в суматохе обронила кошелек. И, конечно же, добрая девочка Нина не была бы таковой, если бы сразу не отправилась вернуть пропажу.
Тем временем к Аю прицепились три каких-то придурка. Неизвестно чем бы это все кончилось, если бы наша добрая волшебница не подоспела вовремя и не разогнала злых дядек прыгающими камнями. С этого и началась крепкая дружба двух девушек. =)
Нина волшебница-недоучка. Из-за своей несобранности она не может толком выколдовать даже самого простого. Беда в том, что, обладая добрым и отзывчивым сердцем, она стремится всем помочь, а получается "немножко" не то, что планировалось. В итоге, все ее "жертвы" оказываются в смешных ситуациях.
© saylina

Название эпизодов:
.01. Ayu & Nina
02. Boy Meets Girl
03. Change Over
04. Da Capo
05. Enigma
06. Fight Over
07. Gigantic Pet
08. Hello, Little Girls
09. Item
10. Jack Straw
11. Knight Spirit
12. Lovesick Night
13. Magic vest
14. Negative girl
15. Orange stone
16. Pinch hitter
17. Quest
18. R & B
19. Stand by me
20. Tangle
21. Untangle
22. Virgin love
23. Wonderful night
24. X-Day
25. Yes, I Like You
26. Zoom In


Источник рипа: DVD-Rip
Автор рипа\энкод: Renmei Rei
Тип видео: Без хардсаба
Контейнер: avi
Видео: XviD (Build 64) | 720 x 540 пикселей (4:3) | 23,976 кадра/сек | ~ 1600 Кбит/сек ;

Аудио:
RUS: AC-3 | 48.0 КГц | стерео | 128 Кбит/сек;
JP: AC-3 | 48.0 КГц | стерео | 196 Кбит/сек;
ENG:  AC-3 | 48.0 КГц | стерео | 196 Кбит/сек

Субтитры:
• русские/отдельно [SRT]
• английские/отдельно [SSA]

Перевод: не известно
Озвучивание: Е. Лурье [Suzaku]

MediaInfo: - показать
Общее
Полное имя                               : R:\Video\HWP\Ultra Maniac (TV)[1-26 of 26][DVD-Rip][HWP][AnimeReactor.ru]\Ultra Maniac [01 of 26][DVDRip][720 x 540 XviD AC3x3][AnimeReactor.ru].avi
Формат                                   : AVI
Формат/Информация                        : Audio Video Interleave
Размер файла                             : 361 Мбайт
Продолжительность                        : 23 м.
Общий поток                              : 2136 Кбит/сек
Программа кодирования                    : VirtualDubModRus 1.5.10.2 (build 2542/release)
Библиотека кодирования                   : VirtualDubMod build 2542/release

Видео
Идентификатор                            : 0
Формат                                   : MPEG-4 Visual
Профиль формата                          : Advanced Simple@L5
Параметр BVOP формата                    : 2
Параметр QPel формата                    : Нет
Параметр GMC формата                     : Без точки перехода
Параметр матрицы формата                 : Default (H.263)
Идентификатор кодека                     : XVID
Идентификатор кодека/Подсказка           : XviD
Продолжительность                        : 23 м.
Битрейт                                  : 1605 Кбит/сек
Ширина                                   : 720 пикселей
Высота                                   : 540 пикселей
Соотношение сторон                       : 4:3
Частота кадров                           : 23,976 кадра/сек
Цветовое пространство                    : YUV
Субдискретизация насыщенности            : 4:2:0
Битовая глубина                          : 8 бит
Тип развёртки                            : Прогрессивная
Метод сжатия                             : С потерями
Бит/(Пиксели*Кадры)                      : 0.172
Размер потока                            : 271 Мбайт (75%)
Библиотека кодирования                   : XviD 64

Аудио #1
Идентификатор                            : 1
Формат                                   : AC-3
Формат/Информация                        : Audio Coding 3
Расширение режима                        : CM (complete main)
Параметр Endianness формата              : Big
Идентификатор кодека                     : 2000
Продолжительность                        : 23 м.
Вид битрейта                             : Постоянный
Битрейт                                  : 128 Кбит/сек
Каналы                                   : 2 канала
Расположение каналов                     : Front: L R
Частота                                  : 48,0 КГц
Битовая глубина                          : 16 бит
Метод сжатия                             : С потерями
Размер потока                            : 21,6 Мбайт (6%)
Выравнивание                             : Разделение по промежуткам
Продолжительность промежутка             : 42  мс. (1,00 видеокадр)
Время предзагрузки промежутка            : 500  мс.
Заголовок                                : Russian [Е. Лурье (Suzaku)]

Аудио #2
Идентификатор                            : 2
Формат                                   : AC-3
Формат/Информация                        : Audio Coding 3
Расширение режима                        : CM (complete main)
Параметр Endianness формата              : Big
Идентификатор кодека                     : 2000
Продолжительность                        : 23 м.
Вид битрейта                             : Постоянный
Битрейт                                  : 192 Кбит/сек
Каналы                                   : 2 канала
Расположение каналов                     : Front: L R
Частота                                  : 48,0 КГц
Битовая глубина                          : 16 бит
Метод сжатия                             : С потерями
Размер потока                            : 32,4 Мбайт (9%)
Выравнивание                             : Разделение по промежуткам
Продолжительность промежутка             : 42  мс. (1,00 видеокадр)
Время предзагрузки промежутка            : 500  мс.
Заголовок                                : Japanese [Original]

Аудио #3
Идентификатор                            : 3
Формат                                   : AC-3
Формат/Информация                        : Audio Coding 3
Расширение режима                        : CM (complete main)
Параметр Endianness формата              : Big
Идентификатор кодека                     : 2000
Продолжительность                        : 23 м.
Вид битрейта                             : Постоянный
Битрейт                                  : 192 Кбит/сек
Каналы                                   : 2 канала
Расположение каналов                     : Front: L R
Частота                                  : 48,0 КГц
Битовая глубина                          : 16 бит
Метод сжатия                             : С потерями
Размер потока                            : 32,4 Мбайт (9%)
Выравнивание                             : Разделение по промежуткам
Продолжительность промежутка             : 42  мс. (1,00 видеокадр)
Время предзагрузки промежутка            : 500  мс.
Заголовок                                : English




Скриншоты: - показать


Дядя Шарик
Релиз от
источник
ARRU & Netlab AnimaGroup & RenmeiRei & REBUILD ARRU
А вы ничего не забыли?
наверх

Последние поступления