ARRU





Texhnolyze
Технолайз (2003)[01-22 из 22][DVD-Rip][HWP]   Bookmark


Скачать вход / регистрация
Тема на форуме Обсудить аниме (комментариев: 52)
Обсуждение раздачи (комментариев: 63)
Смотреть онлайн
ОписаниеTexhnolyze / Технолайз (2003)[01-22 из 22][DVD-Rip][HWP]
Оригинальное название: テクノライズ
Английское название: Texhnolyze
Русское название: Технолайз
Страна: Япония
Период трансляции: c 17.04.2003 по 25.09.2003
Жанр: драма, психология, меха, фантастика
Категория: TV
Количество эпизодов: 22 эп.
Продолжительность: 24 мин.
Режиссёр: Хамадзаки Хироцугу / 浜崎博嗣 / 浜崎弘嗣
Сценарий: Конака Тиаки мл. / 小中千昭 / 小中千照
Студия:


Описание:
RYUKYUSU (LUX) - заброшенный город, наполненный жестокостью и отчаянием. В этом городе живут разные люди, каждый со своими целями и жизненными принципами... Ичизе, парень, который выживает, зарабатывая на жизнь участием в бойцовских поединках. Ран, девушка, способная видеть недалекое будущее. Оониши Киого, один из лидеров ORUGANO, который слышит Глас Города". LUX находится под контролем ORUGANO, Альянса Спасения Граждан - вооруженной организации рабочего класса, которой руководит Калис Макимата. Однако, группа молодых людей, выступающая за свободу и называющая себя RAKAN, выходит из LUX и создает собственное сообщество, GABE. Несмотря на все трения между ORUGANO и RAKAN, неустойчивое равновесие города поддерживается только благодаря участию обеих организаций. Также существует некий редкий материал, РАФИЯ, жизненно необходимый для Texhnolyze, являющийся целью существованию всего города... Обелиск, символ города, тихо наблюдает за хаосом."
© animeshop.biz

Названия эпизодов:
01. Stranger
02. Forfeiture
03. Texhnophile
04. Synapse
05. Loiter
06. Repetition
07. Plot
08. Cruicible
09. Wiggle
10. Conclusion
11. Vagrant
12. Precognition
13. Vista
14. Rejection
15. Shapes
16. Strain
17. Dependence
18. Throne
19. Heavenward
20. Hades
21. Encephalopathy
22. Myth


Источник рипа: DVD-Rip [KAA]
Автор рипа\энкод: Renmei Rei
Тип видео: Без хардсаба
Контейнер: AVI
Видео: XviD (Build 64) | 720 x 404 пикселей | 23,976 кадра/сек | ~1300 - 1700 Кбит/сек ;

Аудио:
RUS: AC-3 | 48.0 КГц | стерео | 192 Кбит/сек;
JAP:  AC-3 | 48.0 КГц | стерео | 192 Кбит/сек

Субтитры: русские\отдельно [SRT][Тюлень & Akari-tan]
Перевод: Suzaku
Озвучивание: Е. Лурье [Suzaku]

MediaInfo: - показать
Общее
Полное имя                               : R:\Video\HWP\Texhnolyze (TV)[1-22 of 22][DVD-Rip][HWP][AnimeReactor.ru]\Texhnolyze [01 of 22][DVD-Rip][720 x 404 XviD AC3][AnimeReactor.ru].avi
Формат                                   : AVI
Формат/Информация                        : Audio Video Interleave
Размер файла                             : 353 Мбайт
Продолжительность                        : 23 м.
Общий поток                              : 2118 Кбит/сек
Программа кодирования                    : VirtualDubModRus 1.5.10.2 (build 2542/release)
Библиотека кодирования                   : VirtualDubMod build 2542/release

Видео
Идентификатор                            : 0
Формат                                   : MPEG-4 Visual
Профиль формата                          : Advanced Simple@L5
Параметр BVOP формата                    : 2
Параметр QPel формата                    : Нет
Параметр GMC формата                     : Без точки перехода
Параметр матрицы формата                 : Default (H.263)
Идентификатор кодека                     : XVID
Идентификатор кодека/Подсказка           : XviD
Продолжительность                        : 23 м.
Битрейт                                  : 1720 Кбит/сек
Ширина                                   : 720 пикселей
Высота                                   : 404 пикселя
Соотношение сторон                       : 16:9
Частота кадров                           : 23,976 кадра/сек
Цветовое пространство                    : YUV
Субдискретизация насыщенности            : 4:2:0
Битовая глубина                          : 8 бит
Тип развёртки                            : Прогрессивная
Метод сжатия                             : С потерями
Бит/(Пиксели*Кадры)                      : 0.247
Размер потока                            : 286 Мбайт (81%)
Библиотека кодирования                   : XviD 64

Аудио #1
Идентификатор                            : 1
Формат                                   : AC-3
Формат/Информация                        : Audio Coding 3
Расширение режима                        : CM (complete main)
Параметр Endianness формата              : Big
Идентификатор кодека                     : 2000
Продолжительность                        : 23 м.
Вид битрейта                             : Постоянный
Битрейт                                  : 192 Кбит/сек
Каналы                                   : 2 канала
Расположение каналов                     : Front: L R
Частота                                  : 48,0 КГц
Битовая глубина                          : 16 бит
Метод сжатия                             : С потерями
Размер потока                            : 32,0 Мбайт (9%)
Выравнивание                             : Разделение по промежуткам
Продолжительность промежутка             : 42  мс. (1,00 видеокадр)
Время предзагрузки промежутка            : 500  мс.
Заголовок                                : Russian [Е. Лурье (Suzaku)]

Аудио #2
Идентификатор                            : 2
Формат                                   : AC-3
Формат/Информация                        : Audio Coding 3
Расширение режима                        : CM (complete main)
Параметр Endianness формата              : Big
Идентификатор кодека                     : 2000
Продолжительность                        : 23 м.
Вид битрейта                             : Постоянный
Битрейт                                  : 192 Кбит/сек
Каналы                                   : 2 канала
Расположение каналов                     : Front: L R
Частота                                  : 48,0 КГц
Битовая глубина                          : 16 бит
Метод сжатия                             : С потерями
Размер потока                            : 32,0 Мбайт (9%)
Выравнивание                             : Разделение по промежуткам
Продолжительность промежутка             : 42  мс. (1,00 видеокадр)
Время предзагрузки промежутка            : 500  мс.
Заголовок                                : Japanese [Original]


Скриншоты: - показать


Дядя Шарик
Релиз от
источник
ARRU & Netlab AnimaGroup & RenmeiRei & REBUILD ARRU
А вы ничего не забыли?
наверх

Последние поступления