ARRU





Ikkitousen Legendary Fighter TV-1
Школьные войны (первый сезон)(2003)[1-13 of 13][BD-Rip][1080p]   Bookmark


Скачать вход / регистрация
Тема на форуме Обсудить аниме (комментариев: 95)
Обсуждение раздачи (комментариев: 53)
ОписаниеIkkitousen Legendary Fighter TV-1 / Школьные войны (первый сезон)(2003)[1-13 of 13][BD-Rip][1080p]
Оригинальное название: 一騎当千
Английское название: Ikki-Tosen - Legendary Fighter
Русское название: Школьные войны
Страна: Япония
Период трансляции:  c 30.07.2003 по 23.10.2003
Жанр: приключения, комедия, боевые искусства, эччи
Категория: TV
Количество эпизодов: 13 эпизодов
Продолжительность: 24 мин.
Режиссёр:  Ватанабэ Такаси
Сценарий: Ёсиока Такао
Автор оригинала:  Сиодзаки Юдзи
Композитор: Мотокура Хироси
Студия:


Описание:
Хакуфу Сонсаку - жизнерадостная простоватая девчонка со сногсшибательной фигурой. И одновременно - тренированный боец, укладывающий на лопатки самых мощных противников! Возможно, именно Хакуфу предстоит поставить точку в истории конфликта, охватившего школы в районе Канто. События из истории древнего Китая, легендарной эпохи Троецарствия, повторяются в современной Японии - но теперь вместо армий под началом знаменитых военачальников борьбу ведут несколько школ, чьи воспитанники сходятся в рукопашных схватках, расширяя границы традиционных восточных единоборств!

Названия эпизодов:
01. One
02. Two
03. Three
04. Four
05. Five
06. Six
07. Seven
08. Eight
09. Nine
10. Ten
11. Eleven
12. Twelve
13. Ikkitousen


Источник рипа: BD-Remux
Автор рипа\энкод: Warui-chan
Контейнер: MKV
Видео: MPEG4/ISO/AVC (h264) | 1440 x 1080 пикселей | 10 бит | 23,976 кадр/сек | ~3500 Кбит/сек ;

Внимание:
Видео 10-битное! Скачайте и установите свежую версию СССР или K-Lite (x32) и смотрите видео с помощью встроенного туда плеера MPC-HC,  или установите сборку KMP с использованием LAV Filters. Как еще один вариант, можно использовать VLC.

Аудио:
RUS1: AC-3 | 48.0 КГц | 6 каналов | 256 Кбит/сек; MC Entertaiment
RUS2: mp3 | 48.0 КГц | стерео | 128 Кбит/сек; Е. Лурье (Suzaku)
JAP:  AC-3 | 48.0 КГц | 6 каналов | 256 Кбит/сек Оригинал

Примечание: дорожки взяты с ДВД рипа.

Субтитры:
• русские\встроенные\SRT - MC Entertaiment
• русские\встроенные\SSA - Zeth & khomyaqu
Перевод:
• MC Entertaiment
• Zeth & khomyaqu
Подгон аудио дорожек и субтитров: Renmei Rei

MediaInfo: - показать
Общее
Уникальный идентификатор                 : 178348574930064372317356573004041307874 (0x862CAFA43A3233D0B00473DE61B446E2)
Полное имя                               : R:\Video\ARRU Upload\Ikkitousen Legendary Fighter (TV-1)[1-13 of 13][BD-Rip][1080p][AnimeReactor.ru]\Ikkitousen Legendary Fighter [01 of 13][BDRip][1440 x 1080 h264 AC3x2 mp3][Animereactor.ru].mkv
Формат                                   : Matroska
Версия формата                           : Version 2
Размер файла                             : 710 Мбайт
Продолжительность                        : 23 м.
Общий поток                              : 4138 Кбит/сек
Дата кодирования                         : UTC 2012-04-09 17:09:50
Программа кодирования                    : mkvmerge v5.5.0 ('Healer' built on Apr  6 2012 21:43:24
Библиотека кодирования                   : libebml v1.2.3 + libmatroska v1.3.0
Attachment                               : Imported font from [Warui-chan] Ikkitousen - 01.ass / Imported font from [Warui-chan] Ikkitousen - 01.ass / Imported font from [Warui-chan] Ikkitousen - 01.ass / Imported font from [Warui-chan] Ikkitousen - 01.ass

Видео
Идентификатор                            : 1
Формат                                   : AVC
Формат/Информация                        : Advanced Video Codec
Профиль формата                          : High 10@L5.1
Параметр CABAC формата                   : Да
Параметр ReFrames формата                : 15 кадров
Режим смешивания                         : Header stripping
Идентификатор кодека                     : V_MPEG4/ISO/AVC
Продолжительность                        : 23 м.
Битрейт                                  : 3416 Кбит/сек
Ширина                                   : 1440 пикселей
Высота                                   : 1080 пикселей
Соотношение сторон                       : 4:3
Частота кадров                           : 23,976 кадра/сек
Цветовое пространство                    : YUV
Субдискретизация насыщенности            : 4:2:0
Битовая глубина                          : 10 бит
Тип развёртки                            : Прогрессивная
Бит/(Пиксели*Кадры)                      : 0.092
Размер потока                            : 586 Мбайт (83%)
Заголовок                                : [Warui-chan]
Библиотека кодирования                   : x264 core 118 r2085 8a62835
Настройки программы                      : cabac=1 / ref=16 / deblock=1:-1:-1 / analyse=0x3:0x113 / me=umh / subme=10 / psy=1 / psy_rd=0.50:0.00 / mixed_ref=1 / me_range=32 / chroma_me=1 / trellis=2 / 8x8dct=1 / cqm=0 / deadzone=21,11 / fast_pskip=0 / chroma_qp_offset=-2 / threads=12 / sliced_threads=0 / nr=0 / decimate=1 / interlaced=0 / bluray_compat=0 / constrained_intra=0 / bframes=12 / b_pyramid=1 / b_adapt=2 / b_bias=0 / direct=1 / weightb=1 / open_gop=0 / weightp=2 / keyint=250 / keyint_min=23 / scenecut=40 / intra_refresh=0 / rc=crf / mbtree=0 / crf=18.0 / qcomp=0.60 / qpmin=0 / qpmax=81 / qpstep=4 / ip_ratio=1.40 / pb_ratio=1.30 / aq=1:1.00
Язык                                     : Japanese
Default                                  : Да
Forced                                   : Нет

Аудио #1
Идентификатор                            : 2
Формат                                   : AC-3
Формат/Информация                        : Audio Coding 3
Расширение режима                        : CM (complete main)
Параметр Endianness формата              : Big
Режим смешивания                         : Header stripping
Идентификатор кодека                     : A_AC3
Продолжительность                        : 23 м.
Вид битрейта                             : Постоянный
Битрейт                                  : 256 Кбит/сек
Каналы                                   : 6 каналов
Расположение каналов                     : Front: L C R, Side: L R, LFE
Частота                                  : 48,0 КГц
Битовая глубина                          : 16 бит
Метод сжатия                             : С потерями
Размер потока                            : 43,9 Мбайт (6%)
Заголовок                                : [MC Entertaiment]
Язык                                     : Russian
Default                                  : Да
Forced                                   : Нет

Аудио #2
Идентификатор                            : 3
Формат                                   : MPEG Audio
Версия формата                           : Version 1
Профиль формата                          : Layer 3
Режим смешивания                         : Header stripping
Идентификатор кодека                     : A_MPEG/L3
Идентификатор кодека/Подсказка           : MP3
Продолжительность                        : 23 м.
Вид битрейта                             : Постоянный
Битрейт                                  : 128 Кбит/сек
Каналы                                   : 2 канала
Частота                                  : 48,0 КГц
Метод сжатия                             : С потерями
Размер потока                            : 22,0 Мбайт (3%)
Заголовок                                : [Е. Лурье (Suzaku)]
Язык                                     : Russian
Default                                  : Нет
Forced                                   : Нет

Аудио #3
Идентификатор                            : 4
Формат                                   : AC-3
Формат/Информация                        : Audio Coding 3
Расширение режима                        : CM (complete main)
Параметр Endianness формата              : Big
Режим смешивания                         : Header stripping
Идентификатор кодека                     : A_AC3
Продолжительность                        : 23 м.
Вид битрейта                             : Постоянный
Битрейт                                  : 256 Кбит/сек
Каналы                                   : 6 каналов
Расположение каналов                     : Front: L C R, Side: L R, LFE
Частота                                  : 48,0 КГц
Битовая глубина                          : 16 бит
Метод сжатия                             : С потерями
Размер потока                            : 43,9 Мбайт (6%)
Заголовок                                : [Original]
Язык                                     : Japanese
Default                                  : Нет
Forced                                   : Нет

Текст #1
Идентификатор                            : 5
Формат                                   : UTF-8
Идентификатор кодека                     : S_TEXT/UTF8
Идентификатор кодека/Информация          : UTF-8 Plain Text
Заголовок                                : [MC Entertaiment]
Язык                                     : Russian
Default                                  : Да
Forced                                   : Нет

Текст #2
Идентификатор                            : 6
Формат                                   : SSA
Идентификатор кодека                     : S_TEXT/SSA
Идентификатор кодека/Информация          : Sub Station Alpha
Метод сжатия                             : Без потерь
Заголовок                                : [Zeth & khomyaqu]
Язык                                     : Russian
Default                                  : Нет
Forced                                   : Нет

Меню
00:00:00.000                             : :OP
00:01:26.000                             : art A
00:09:58.000                             : art B
00:12:58.000                             : art C
00:21:56.000                             : :ED
00:23:26.000                             : review


Скриншоты: - показать
Дядя Шарик
Релиз от
источник
ARRU & Netlab AnimaGroup & RenmeiRei & REBUILD ARRU
А вы ничего не забыли?
наверх

Последние поступления