ARRU





Ikkitousen: Great Guardians TV-3
Сила тысячи: Великие Стражи (третий сезон)(2008)[01-12 из 12 +6sp][DVD-Rip]   Bookmark


Скачать вход / регистрация
Тема на форуме Обсудить аниме (комментариев: 95)
Обсуждение раздачи (комментариев: 4)
Смотреть онлайн
ОписаниеIkkitousen: Great Guardians TV-3 / Сила тысячи: Великие Стражи (третий сезон)(2008)[01-12 из 12 +6sp][DVD-Rip]
Оригинальное название: 一騎当千 Great Guardians
Английское название: Ikkitousen: Great Guardians
Русское название: Сила тысячи: Великие Стражи / Школьные Войны (третий сезон)
Страна: Япония
Трансляция: c 11.06.2008
Жанр: приключения, комедия, этти, эротика, боевые искусства.
Категория: ТВ
Количество эпизодов: 12 эпизодов, +6 спешлов.
Продолжительность: 25 мин; спешлы по 3 мин.
Режиссёр: Охата Койти
Автор оригинала: Сиодзаки Юдзи
Студия:


Описание:
Третий сезон - прямое продолжение второго, все от той же студии ARMS. Не так давно герои и героини переиграли битву у Красных Утесов и вновь сохранили мир в Канто. Жизнь продолжается - Хакуфу с верным кузеном Сюю пытается заработать на зарубежный турнир боевых искусств, Садзи удалился в горы, Кану – в тренировочный поход, а Рюби читает любимые книжки. Все бы хорошо, но на сцену не терпится попасть новым сильным бойцам, хитроумным злодеям и прочим темным личностям.
И вот, во время оживленного разговора с давними друзьями и недавними союзниками из академии Сэйто, Хакуфу узнает абсолютно сногсшибательную новость – у нее, оказывается, есть младшая сестра! Но люди сведущие хорошо помнят, какую роль сыграл ее исторический аналог в древней китайской истории. Повторится ли она, или герои проложат собственный путь – вот основной мотив всего сериала.
Новый сезон далеко отошел от манги и полностью снят на оригинальном материале.
© Hollow

Названия эпизодов:
01. The matters of a country warrior
02. Deception is the key to warfare
03. Dead cannot be brought back to life
04. Regard your soldiers as children
05. Do not fight unless the position is critical
06. Use the sharpest intelligence of your army for spying purposes
07. At first like a young virgin
08. To the people and not for the people
09. Many calculations result in victory. Few calculations result in defeat
10. The best general aims to destroy the enemy from within
11. Taking the iniciative ensures the enemy defeat
12. Bound to reunite after a long separation

Спэшлы:
01. Battle Tour Club - Sexy Cosplay - Dangerous Part-time Job, first part: Hakufu Sonsaku
02. Battle Tour Club - Sexy Cosplay - Dangerous Part-time Job, second part: Ryofu Housen
03. Battle Tour Club - Sexy Cosplay - Dangerous Part-time Job, third part: Kan'u Unchou and Kakouen Myousai
04. Battle Tour Club - Sexy Cosplay - Dangerous Part-time Job, fourth part: Kakouen Myousai, Kan'u Unchou & Ryomou Shimei
05. Battle Tour Club - Sexy Cosplay - Dangerous Part-time Job, fifth part
06. Battle Tour Club - Sexy Cosplay - Dangerous Part-time Job, sixth part


Источник рипа: DVD
Автор рипа\энкод:
• [1-12 of 12] AK
• [1-6 of 6 specials] KTXP&HKG
Тип видео: Без хардсаба
Контейнер: MKV
Видео: AVC (x.264) | 720 x 480 pixels (AR 864 x 480) | 23,976 fps | ~1200 kbps ;

Аудио:
RUS: mpeg | 48.0 KHz | stereo | 192 Kbps;
JAP:  AC-3 | 48.0 KHz | stereo | 256 Kbps

Субтитры:
• RU - soft [SSA][Willy & Hollow][внутри контейнера]
• ENG - soft [SSA][внутри контейнера]

Перевод: Willy & Hollow
Озвучивание:  
Misterx, Mantikhora (01-03 серии);
Sajuri & shalu (04-12 серии);
SPAWN (спешлы 01-06)


MediaInfo: - показать
Общее
Уникальный идентификатор                 : 190394625751126463727903649618765612238 (0x8F3CABCD1BA53EC1B1129D64764D04CE)
Полное имя                               : R:\Video\ARRU Upload\Ikkitousen Great Guardians (TV-3)[1-12 of 12 + 6sp][DVD-Rip][AnimeReactor.ru]\Ikkitousen Great Guardians TV-3 [01 of 12][DVD H264 AC3][AnimeReactor.ru].mkv
Формат                                   : Matroska
Версия формата                           : Version 2
Размер файла                             : 317 Мбайт
Продолжительность                        : 23 м.
Общий поток                              : 1857 Кбит/сек
Дата кодирования                         : UTC 2012-04-08 17:10:20
Программа кодирования                    : mkvmerge v5.3.0 ('I could have danced' built on Feb  9 2012 10:38:07
Библиотека кодирования                   : libebml v1.2.3 + libmatroska v1.3.0

Видео
Идентификатор                            : 1
Формат                                   : AVC
Формат/Информация                        : Advanced Video Codec
Профиль формата                          : High@L4.1
Параметр CABAC формата                   : Да
Параметр ReFrames формата                : 4 кадра
Режим смешивания                         : Header stripping
Идентификатор кодека                     : V_MPEG4/ISO/AVC
Продолжительность                        : 23 м.
Битрейт                                  : 1180 Кбит/сек
Ширина                                   : 864 пикселя
Высота                                   : 480 пикселей
Соотношение сторон                       : 16:9
Частота кадров                           : 29,970 кадров/сек
Цветовое пространство                    : YUV
Субдискретизация насыщенности            : 4:2:0
Битовая глубина                          : 8 бит
Тип развёртки                            : Прогрессивная
Бит/(Пиксели*Кадры)                      : 0.095
Размер потока                            : 201 Мбайт (64%)
Заголовок                                : [AK]
Библиотека кодирования                   : x264 core 65 r999 cc51047
Настройки программы                      : cabac=1 / ref=4 / deblock=1:0:0 / analyse=0x3:0x133 / me=umh / subme=9 / psy_rd=0.0:0.0 / mixed_ref=1 / me_range=8 / chroma_me=1 / trellis=0 / 8x8dct=1 / cqm=0 / deadzone=21,11 / chroma_qp_offset=0 / threads=3 / nr=0 / decimate=0 / mbaff=0 / bframes=6 / b_pyramid=1 / b_adapt=2 / b_bias=0 / direct=3 / wpredb=1 / keyint=480 / keyint_min=48 / scenecut=40(pre) / rc=crf / crf=18.0 / qcomp=0.60 / qpmin=10 / qpmax=51 / qpstep=4 / ip_ratio=1.40 / pb_ratio=1.30 / aq=0
Язык                                     : Japanese
Default                                  : Да
Forced                                   : Нет

Аудио #1
Идентификатор                            : 2
Формат                                   : MPEG Audio
Версия формата                           : Version 1
Профиль формата                          : Layer 3
Режим                                    : Joint stereo
Расширение режима                        : MS Stereo
Режим смешивания                         : Header stripping
Идентификатор кодека                     : A_MPEG/L3
Идентификатор кодека/Подсказка           : MP3
Продолжительность                        : 23 м.
Вид битрейта                             : Постоянный
Битрейт                                  : 192 Кбит/сек
Каналы                                   : 2 канала
Частота                                  : 48,0 КГц
Метод сжатия                             : С потерями
Размер потока                            : 32,8 Мбайт (10%)
Заголовок                                : [Misterx, Mantikhora]
Библиотека кодирования                   : LAME3.97
Язык                                     : Russian
Default                                  : Да
Forced                                   : Нет

Аудио #2
Идентификатор                            : 3
Формат                                   : AC-3
Формат/Информация                        : Audio Coding 3
Расширение режима                        : CM (complete main)
Параметр Endianness формата              : Big
Режим смешивания                         : Header stripping
Идентификатор кодека                     : A_AC3
Продолжительность                        : 23 м.
Вид битрейта                             : Постоянный
Битрейт                                  : 448 Кбит/сек
Каналы                                   : 2 канала
Расположение каналов                     : Front: L R
Частота                                  : 48,0 КГц
Битовая глубина                          : 16 бит
Метод сжатия                             : С потерями
Размер потока                            : 76,4 Мбайт (24%)
Заголовок                                : [Original]
Язык                                     : Japanese
Default                                  : Нет
Forced                                   : Нет

Текст #1
Идентификатор                            : 4
Формат                                   : ASS
Идентификатор кодека                     : S_TEXT/ASS
Идентификатор кодека/Информация          : Advanced Sub Station Alpha
Метод сжатия                             : Без потерь
Заголовок                                : [Willy & Hollow]
Язык                                     : Russian
Default                                  : Нет
Forced                                   : Нет

Текст #2
Идентификатор                            : 5
Формат                                   : ASS
Идентификатор кодека                     : S_TEXT/ASS
Идентификатор кодека/Информация          : Advanced Sub Station Alpha
Метод сжатия                             : Без потерь
Язык                                     : English
Default                                  : Да
Forced                                   : Нет


Скриншоты: - показать
Дядя Шарик
Релиз от
источник
ARRU & Oto-Ne Animeworks & REBUILD ARRU   &   SPAWN
А вы ничего не забыли?
наверх

Последние поступления