ARRU





Coyote Ragtime Show
Койот Рэгтайм (2006)[01-12 из 12][DVDRip]   Bookmark


Скачать вход / регистрация
Тема на форуме Обсудить аниме (комментариев: 8)
Обсуждение раздачи (комментариев: 0)
Смотреть онлайн
ОписаниеCoyote Ragtime Show / Койот Рэгтайм (2006)[01-12 из 12][DVDRip]
Оригинальное название: コヨーテラグタイムショー
Английское название: Coyote Ragtime Show
Русское название: Койот Рэгтайм

Страна: Япония
Год выпуска / период трансляции: 2006
Жанр: приключения, комедия, фантастика
Количество эпизодов ТВ: 12
Продолжительность: 25 мин


Студия:
Режиссёр: Нонака Такуя
Сценарий: Осэ Мацури
Композитор: Камэяма Койтиро

Описание:
Король пиратов мертв, с повстанцами правительство считаться не собирается, а гигантская бомба не оставит от Грэйслэнда и следа! Пули, клинки, гранаты, снаряды и андроиды-лолиты, запрограммированные на убийство - все это сваливается на нечаянных компаньонов, включившихся в погоню за миллиардным состоянием!
World Art


Названия эпизодов:
01. Jailbreak
02. The Girl of the Pirate hideout
03. The Man that was like a right arm
04. The Days Gone by
05. Never Change
06. Fierce Fighting
07. Marciano The Traitor
08. The Road To Gigabanks
09. Jupiter
10. Angelica Barnes
11. Fading Memories
12. Coyote



Качество рипа: DVDRip
Автор рипа: R2RAW
Тип видео: Без хардсаба
Контейнер: mkv
Видео: WVC1 | 720x480 pixels | 23.976 fps | ~2000 Kbps,
   

Аудио:
RUS: Vorbis | 48000Hz | 128 Kbps | 2ch  
JAP: Vorbis | 48000Hz | 128 Kbps | 2ch
Субтитры:  есть

Перед просмотром рекомендую обновить кодеки

Если возникли проблемы с рассинхронизацией звука: - показать

Если пользуетесь проигрывателем, использующим ffdshow video decoder, переключите кодек VС-1 в позицию wmv9. Звук обрабатывается в ffdshow audio decoder, а именно Vorbis libavcodec.


Перевод:
серии 1-9 - rei
серии 10-12 - DeGreez

Озвучивание: многоголосая, закадровая MC-Ent

MediaInfo: - показать

Общее
Формат                           : Matroska
Версия формата                   : Version 1
Размер файла                     : 464 Мбайт
Продолжительность                : 24 м.
Режим общего битрейта            : Переменный
Общий поток                      : 2680 Кбит/сек
Дата кодирования                 : UTC 2009-09-17 03:36:03
Программа кодирования            : mkvmerge v2.5.3 built on Mar  7 2009 15:00:41
Библиотека кодирования           : libebml v0.7.7 + libmatroska v0.8.1

Видео
Идентификатор                    : 1
Формат                           : VC-1
Профиль формата                  : AP@L3
Идентификатор кодека             : WVC1
Идентификатор кодека/Подсказка   : Microsoft
Продолжительность                : 24 м.
Битрейт                          : 2361 Кбит/сек
Ширина                           : 720 пикселей
Высота                           : 480 пикселей
Соотношение сторон               : 16:9
Соотношение сторон в оригинале   : 3:2
Режим частоты кадров             : Постоянный
Частота кадров                   : 23,976 кадра/сек
Стандарт вещания                 : NTSC
Субдискретизация насыщенности    : 4:2:0
Битовая глубина                  : 8 бит
Тип развёртки                    : Прогрессивная
Метод сжатия                     : С потерями
Бит/(Пиксели*Кадры)              : 0.285
Размер потока                    : 408 Мбайт (88%)
Язык                             : English
Default                          : Да
Forced                           : Нет

Аудио #1
Идентификатор                    : 2
Формат                           : Vorbis
Параметр Floor формата           : 1
Идентификатор кодека             : A_VORBIS
Продолжительность                : 24 м.
Вид битрейта                     : Переменный
Битрейт                          : 138 Кбит/сек
Каналы                           : 2 канала
Частота                          : 48,0 КГц
Метод сжатия                     : С потерями
Задержка видео                   : 900 мс.
Размер потока                    : 23,9 Мбайт (5%)
Заголовок                        : MC Ent.
Библиотека кодирования           : libVorbis 1.0.1 (UTC 2003-09-09)
Язык                             : Russian
Default                          : Да
Forced                           : Нет
Программа кодирования            : Made with BeSweet v1.5b30
Encoded_Application/Url          : http://DSPguru.doom9.org

Аудио #2
Идентификатор                    : 3
Формат                           : Vorbis
Параметр Floor формата           : 1
Идентификатор кодека             : A_VORBIS
Продолжительность                : 24 м.
Вид битрейта                     : Переменный
Битрейт                          : 128 Кбит/сек
Каналы                           : 2 канала
Частота                          : 48,0 КГц
Метод сжатия                     : С потерями
Задержка видео                   : 1 с. 0 мс.
Размер потока                    : 22,1 Мбайт (5%)
Заголовок                        : Chiba TV
Библиотека кодирования           : aoTuV Beta 4.51 (UTC 2005-11-17)
Язык                             : Japanese
Default                          : Нет
Forced                           : Нет
Программа кодирования            : Made with BeSweet v1.5b31
Encoded_Application/Url          : http://DSPguru.doom9.org

Текст
Идентификатор                    : 4
Формат                           : ASS
Идентификатор кодека             : S_TEXT/ASS
Идентификатор кодека/Информация  : Advanced Sub Station Alpha
Метод сжатия                     : Без потерь
Заголовок                        : rei
Язык                             : Russian
Default                          : Нет
Forced                           : Нет


Скриншоты: - показать



От себя:
Данный релиз был был предоставлен товарищем Carrier88, за что ему огромное спасибо.
Дядя Шарик
Релиз от
источник
ARRU & Carrier88 & REBUILD ARRU
наверх

Последние поступления