ARRU





Toradora!
ТораДора! (2009)[01-25 из 25][BDRip][HWP]   Bookmark


Скачать вход / регистрация
Тема на форуме Обсудить аниме (комментариев: 853)
Обсуждение раздачи (комментариев: 236)
ОписаниеToradora! / ТораДора! (2009)[01-25 из 25][BDRip][HWP]
Оригинальное название: Toradora! / とらドラ!
Английское название: Tiger x Dragon
Русское название: Торадора \ Тигр против Дракона!
Страна: Япония
Год выпуска / период трансляции: c 02.10.2008 по 26.03.2009
Жанр: комедия, романтика, драма, повседневность
Количество эпизодов: 25
Продолжительность: 25 мин  
Студия: J.C. Staff
Режиссёр: Нагай Тацуюки
Автор оригинала: Такэмия Ююко

Описание:
Рюдзи Такасу в жизни крупно не повезло. Покойный папаша-мафиози наградил сына таким лицом и глазами, что стоит ему не так взглянуть – учителя впадают в ступор, а одноклассники сами достают бумажники. В итоге Рюдзи, чье имя к тому же значит «Дракон», считается самым крутым хулиганом в округе и все его избегают, кроме единственного друга, Юсаку Китамуры. А ведь в душе главный герой – мягкий и романтичный парень, который еще и тащит на себе все домашнее хозяйство, вместе с попугаем Инко и непутевой маманей в придачу.

Единственная отрада Рюдзи в том, что в старшей школе в один класс с ним попали не только лучший друг Китамура, но и любовь всей жизни Минору Кусиэда – милая и энергичная девушка. А теперь плохие новости: все, кроме него, уже в курсе, что туда же приходит маленькая, плоскогрудая и на редкость вспыльчивая красавица Тайга Айсака по прозвищу «Карманный Тигр»! Вся школа застыла в ожидании – что будет, когда столкнутся две местные легенды – Тигр и Дракон?! Чтобы узнать ответ, смотрите новую искрометную школьную комедию положений, снятую по бесспорным мотивам «Сяны», «Хаятэ» и «Луизы»!

© Hollow

Источник рипа: BD-Rip
Автор рипа\энкод: RACER RS
Тип видео: Без хардсаба
Контейнер: AVI
Видео: XVID 64 | 720 x 404 (16:9) | 23,976 fps | до 1500 kbps ;

Аудио:
1. RU - VO: AC-3 | 48.0 KHz | stereo | 256 Kbps;
2. JP: AC-3 | 48.0 KHz | stereo | 256 Kbps

Субтитры: Ru - soft [ASS]и[SRT]
Перевод:Pelikan & Viper & r00teniy

Озвучивание: Persona99 & MaxDamage

MediaInfo: - показать

General
Complete name                            : I:\ARRU Rebuild\Toradora (TV) [25 of 25] [BD-Rip] [HWP] [AnimeReactor.ru]\Toradora_[07_of_25]_[ru_jp]_[Get_Smart_Group_&_Animereactor].avi
Format                                   : AVI
Format/Info                              : Audio Video Interleave
File size                                : 340 MiB
Duration                                 : 23mn 35s
Overall bit rate                         : 2 017 Kbps
Movie name                               : [ReinForce] Toradora! - 01 (BDRip 1280x720 x264 FLAC)
Writing application                      : XviD4PSP 6.0 / 53.31.100

Video
ID                                       : 0
Format                                   : MPEG-4 Visual
Format profile                           : Simple@L5
Format settings, BVOP                    : 2
Format settings, QPel                    : No
Format settings, GMC                     : No warppoints
Format settings, Matrix                  : Default (H.263)
Codec ID                                 : XVID
Codec ID/Hint                            : XviD
Duration                                 : 23mn 34s
Bit rate                                 : 1 489 Kbps
Width                                    : 720 pixels
Height                                   : 404 pixels
Display aspect ratio                     : 16:9
Frame rate                               : 23.976 fps
Color space                              : YUV
Chroma subsampling                       : 4:2:0
Bit depth                                : 8 bits
Scan type                                : Progressive
Compression mode                         : Lossy
Bits/(Pixel*Frame)                       : 0.213
Stream size                              : 251 MiB (74%)
Writing library                          : XviD 64

Audio #1
ID                                       : 1
Format                                   : AC-3
Format/Info                              : Audio Coding 3
Mode extension                           : CM (complete main)
Codec ID                                 : 2000
Duration                                 : 23mn 35s
Bit rate mode                            : Constant
Bit rate                                 : 256 Kbps
Channel(s)                               : 2 channels
Channel positions                        : Front: L R
Sampling rate                            : 48.0 KHz
Bit depth                                : 16 bits
Compression mode                         : Lossy
Stream size                              : 43.2 MiB (13%)
Alignment                                : Aligned on interleaves
Interleave, duration                     : 32 ms (0.77 video frame)
Title                                    : Persona99 & MaxDamage

Audio #2
ID                                       : 2
Format                                   : AC-3
Format/Info                              : Audio Coding 3
Mode extension                           : CM (complete main)
Codec ID                                 : 2000
Duration                                 : 23mn 35s
Bit rate mode                            : Constant
Bit rate                                 : 256 Kbps
Channel(s)                               : 2 channels
Channel positions                        : Front: L R
Sampling rate                            : 48.0 KHz
Bit depth                                : 16 bits
Compression mode                         : Lossy
Stream size                              : 43.2 MiB (13%)
Alignment                                : Aligned on interleaves
Interleave, duration                     : 32 ms (0.77 video frame)
Title                                    : Original




Скриншоты: - показать



Дядя Шарик
Релиз от
источник
ARRU & Get Smart & REBUILD ARRU   &   RACER_RS
А вы ничего не забыли?
наверх

Последние поступления