ARRU





Umineko no Naku Koro ni
Когда плачут чайки (2009)[01-26 из 26][BDRip][HWP]   Bookmark


Скачать вход / регистрация
Тема на форуме Обсудить аниме (комментариев: 795)
Обсуждение раздачи (комментариев: 76)
ОписаниеUmineko no Naku Koro ni / Когда плачут чайки (2009)[01-26 из 26][BDRip][HWP]
Оригинальное название: Umineko no Naku Koro ni
Английское название: When Seagulls Cry
Русское название: Когда плачут чайки
Страна: Япония
Год выпуска: 2009
Жанр: триллер, мистика, ужасы, детектив
Категория: TV
Количество эпизодов: 26 эпизодов
Продолжительность: 25 минут
Режиссёр: Кон Тиаки
Автор оригинала: Рюкиси07
Студия:


Описание:
Киндзо Усиромия, глава богатого и влиятельного клана, давно удалился от дел и живет на уединенном острове Роккэн вместе с семьей старшего сына Клауса. В 1986 году на ежегодную встречу прибывают остальные наследники Киндзо вместе с супругами и детьми. Повестка дня проста – отец стар, живет затворником, предстоит дележ немалого состояния, так что страсти закипают нешуточные. А пока старшие оживленно спорят, молодежь развлекается, как может, осматривая остров, старый дом и вспоминая детские истории.

От нечего делать речь заходит о старинной легенде про ведьму Беатриче, портрет которой висит в особняке. Якобы, Ведьму Вечности можно призвать и заключить сделку – иногда за огромную цену, иногда, по неведомому капризу – почти бесплатно, всего лишь разгадав загадку. Темные слухи, намекающие, что успех клана Усиромия нормальными средствами не объяснить, оказались правдой. Налетевший тайфун отрезает Роккэн от внешнего мира. В раскатах молний Беатриче является на остров. Партия в «живые шахматы» началась!

© Hollow

Названия эпизодов:
01. Episode I-I Opening
02. Episode I-II First Move
03. Episode I-III Dubious Move
04. Episode I-IV Blunder
05. Episode I-V Fool's Mate
06. Episode II-I Middle Game
07. Episode II-II Early Queen Move
08. Episode II-III Week Square
09. Episode II-IV Skewer
10. Episode II-V Accept
11. Episode II-VI Back Rank Mate
12. Episode III-I Castling
13. Episode III-II Gambit
14. Episode III-III Positional Play
15. Episode III-IV Isolated Pawn
16. Episode III-V Queening Square
17. Episode III-VI Promotion
18. Episode III-VII Swindles
19. Episode IV-I End Game
20. Episode IV-II Zugzwang
21. Episode IV-III Prophylaxis
22. Episode IV-IV Problem Child
23. Episode IV-V Breakthrough
24. Episode IV-VI Adjourn
25. Episode IV-VII Forced Move
26. Episode IV-VIII Sacrifice


Источник рипа: BD-Rip [Salender-Raws]
Автор рипа\энкод: Renmei Rei
Тип видео: Без хардсаба
Контейнер: AVI
Видео: XviD (Build 64) | 720 x 404 pixels | 23,976 fps | ~1600 kbps ;

Аудио:
RUS: AC-3 | 48.0 KHz | stereo | 256 Kbps;
JAP:  AC-3 | 48.0 KHz | stereo | 256 Kbps

Субтитры: Ru - soft [SRT, SSA][Antravoco]
Перевод: Reaper, Мария Гостюхина
Редактура: Blazing Wizard, sild
Оформление: Kekcelt, Rictorn
Озвучивание: Persona99

MediaInfo: - показать
Общее
Полное имя                               : R:\Video\HWP\Umineko no Naku Koro ni (TV)[1-26 of 26][BD-Rip][HWP][AnimeReactor.ru]\Umineko no Naku Koro ni [01 of 26][BDRip][720 x 404 XviD AC3][Persona99 & Animereactor.ru].avi
Формат                                   : AVI
Формат/Информация                        : Audio Video Interleave
Размер файла                             : 356 Мбайт
Продолжительность                        : 23 м.
Общий поток                              : 2138 Кбит/сек
Программа кодирования                    : VirtualDubModRus 1.5.10.2 (build 2542/release)
Библиотека кодирования                   : VirtualDubMod build 2542/release

Видео
Идентификатор                            : 0
Формат                                   : MPEG-4 Visual
Профиль формата                          : Advanced Simple@L5
Параметр BVOP формата                    : 2
Параметр QPel формата                    : Нет
Параметр GMC формата                     : Без точки перехода
Параметр матрицы формата                 : Default (H.263)
Идентификатор кодека                     : XVID
Идентификатор кодека/Подсказка           : XviD
Продолжительность                        : 23 м.
Битрейт                                  : 1612 Кбит/сек
Ширина                                   : 720 пикселей
Высота                                   : 404 пикселя
Соотношение сторон                       : 16:9
Частота кадров                           : 23,976 кадра/сек
Цветовое пространство                    : YUV
Субдискретизация насыщенности            : 4:2:0
Битовая глубина                          : 8 бит
Тип развёртки                            : Прогрессивная
Метод сжатия                             : С потерями
Бит/(Пиксели*Кадры)                      : 0.231
Размер потока                            : 268 Мбайт (75%)
Библиотека кодирования                   : XviD 64

Аудио #1
Идентификатор                            : 1
Формат                                   : AC-3
Формат/Информация                        : Audio Coding 3
Расширение режима                        : CM (complete main)
Идентификатор кодека                     : 2000
Продолжительность                        : 23 м.
Вид битрейта                             : Постоянный
Битрейт                                  : 256 Кбит/сек
Каналы                                   : 2 канала
Расположение каналов                     : Front: L R
Частота                                  : 48,0 КГц
Битовая глубина                          : 16 бит
Метод сжатия                             : С потерями
Размер потока                            : 42,6 Мбайт (12%)
Выравнивание                             : Разделение по промежуткам
Продолжительность промежутка             : 42  мс. (1,00 видеокадр)
Время предзагрузки промежутка            : 500  мс.
Заголовок                                : Russian [Persona99]

Аудио #2
Идентификатор                            : 2
Формат                                   : AC-3
Формат/Информация                        : Audio Coding 3
Расширение режима                        : CM (complete main)
Идентификатор кодека                     : 2000
Продолжительность                        : 23 м.
Вид битрейта                             : Постоянный
Битрейт                                  : 256 Кбит/сек
Каналы                                   : 2 канала
Расположение каналов                     : Front: L R
Частота                                  : 48,0 КГц
Битовая глубина                          : 16 бит
Метод сжатия                             : С потерями
Размер потока                            : 42,6 Мбайт (12%)
Выравнивание                             : Разделение по промежуткам
Продолжительность промежутка             : 42  мс. (1,00 видеокадр)
Время предзагрузки промежутка            : 500  мс.
Заголовок                                : Japanese [Original]


Скриншоты: - показать


Дядя Шарик
Релиз от
источник
ARRU & Get Smart & RenmeiRei & REBUILD ARRU
А вы ничего не забыли?
наверх

Последние поступления