ARRU





MM!
Молодые мазохисты (2010)[01 - 12 из 12][BDRip][HWP]   Bookmark


Скачать вход / регистрация
Тема на форуме Обсудить аниме (комментариев: 96)
Обсуждение раздачи (комментариев: 32)
Смотреть онлайн
ОписаниеMM! / Молодые мазохисты (2010)[01 - 12 из 12][BDRip][HWP]
Оригинальное название: えむえむっ!
Английское название: MM!
Русское название: Молодые мазохисты!
Страна: Япония  
Год выпуска / период трансляции: c 02.10.2010
Жанр: комедия, романтика
Количество эпизодов: ТВ (12 эп.)
Продолжительность: 25 мин.
Режиссёр: Нагасава Цуёси
Автор оригинала: Мацуно Акинари
Студия:


Описание:
Добро пожаловать в увлекательный мир юношеской фантазии! Главный герой, 17-летний Таро Садо, несмотря на фамилию – чистейшей воды мазохист, обожающий, когда его избивают и унижают красивые девушки, особенно вспыльчивые плоскогрудые миниатюрные блондинки с манией величия. Если учесть, что другая подруга героя страдает тяжелой андрофобией, собственные мать и сестра регулярно покушаются на инцест, босс на работе – хардкорный отаку, школьная медсестра повернута на косплее, а лучший друг… э-э… ну очень приятный парень, то становится ясно, что перед нами типичная романтическая школьная комедия!

Бедный Садо и сам бы хотел избавиться от «маленькой проблемы», но еще не понимает, что тернистая стезя порока ведет лишь в одну сторону, и любые попытки пригасить пламя извращенной страсти поднимут из темных глубин подсознания нечто куда худшее. Будь проще, Таро, оставайся собой – в этом сериале нормальных людей нет!

© Hollow

Названия эпизодов:
01. Острые края первой любви!
02. Так похожи, но так далеки
03. Ваш преданный пёс
04. И то, и это, дурная парочка
05. Гениальный переполох!
06. Бардак в моём доме
07. Летний любовный треугольник
08. Любовь как А, Б и Л
09. Конспирация в стиле МФК
10. Госпожа садистка Арасико
11. Без памяти
12. Рождественское желание


Источник рипа: BD-Rip [ANE]
Автор рипа\энкод: Renmei Rei
Тип видео: Без хардсаба
Контейнер: AVI
Видео: XviD (Build 64) | 720 x 404 pixels | 23,976 fps | ~1600 kbps ;

Аудио:
RUS: AC-3 | 48.0 KHz | stereo | 256 Kbps;
JAP:  AC-3 | 48.0 KHz | stereo | 256 Kbps

Субтитры: Ru - soft [SRT, SSA][Advantage]
Перевод и оформление: FiLunder_7
Редактура: Hotaru
Лирика: Matador
Озвучивание: Eladiel & Lupin
Тайминг: Dark Man

MediaInfo: - показать
Общее
Полное имя                               : R:\Video\HWP\MM\MM [01 of 12][BDRip][720 x 404 XviD AC3][Animereactor.ru].avi
Формат                                   : AVI
Формат/Информация                        : Audio Video Interleave
Размер файла                             : 361 Мбайт
Продолжительность                        : 23 м.
Общий поток                              : 2131 Кбит/сек
Программа кодирования                    : VirtualDubModRus 1.5.10.2 (build 2542/release)
Библиотека кодирования                   : VirtualDubMod build 2542/release

Видео
Идентификатор                            : 0
Формат                                   : MPEG-4 Visual
Профиль формата                          : Advanced Simple@L5
Параметр BVOP формата                    : 2
Параметр QPel формата                    : Нет
Параметр GMC формата                     : Без точки перехода
Параметр матрицы формата                 : Default (H.263)
Идентификатор кодека                     : XVID
Идентификатор кодека/Подсказка           : XviD
Продолжительность                        : 23 м.
Битрейт                                  : 1605 Кбит/сек
Ширина                                   : 720 пикселей
Высота                                   : 404 пикселя
Соотношение сторон                       : 16:9
Частота кадров                           : 23,976 кадра/сек
Цветовое пространство                    : YUV
Субдискретизация насыщенности            : 4:2:0
Битовая глубина                          : 8 бит
Тип развёртки                            : Прогрессивная
Метод сжатия                             : С потерями
Бит/(Пиксели*Кадры)                      : 0.230
Размер потока                            : 272 Мбайт (75%)
Библиотека кодирования                   : XviD 64

Аудио #1
Идентификатор                            : 1
Формат                                   : AC-3
Формат/Информация                        : Audio Coding 3
Расширение режима                        : CM (complete main)
Идентификатор кодека                     : 2000
Продолжительность                        : 23 м.
Вид битрейта                             : Постоянный
Битрейт                                  : 256 Кбит/сек
Каналы                                   : 2 канала
Расположение каналов                     : Front: L R
Частота                                  : 48,0 КГц
Битовая глубина                          : 16 бит
Метод сжатия                             : С потерями
Размер потока                            : 43,4 Мбайт (12%)
Выравнивание                             : Разделение по промежуткам
Продолжительность промежутка             : 42  мс. (1,00 видеокадр)
Время предзагрузки промежутка            : 500  мс.
Заголовок                                : Russian [Eladiel & Lupin]

Аудио #2
Идентификатор                            : 2
Формат                                   : AC-3
Формат/Информация                        : Audio Coding 3
Расширение режима                        : CM (complete main)
Идентификатор кодека                     : 2000
Продолжительность                        : 23 м.
Вид битрейта                             : Постоянный
Битрейт                                  : 256 Кбит/сек
Каналы                                   : 2 канала
Расположение каналов                     : Front: L R
Частота                                  : 48,0 КГц
Битовая глубина                          : 16 бит
Метод сжатия                             : С потерями
Размер потока                            : 43,4 Мбайт (12%)
Выравнивание                             : Разделение по промежуткам
Продолжительность промежутка             : 42  мс. (1,00 видеокадр)
Время предзагрузки промежутка            : 500  мс.
Заголовок                                : Japanese [Original]


Скриншоты: - показать


Дядя Шарик
Релиз от
источник
ARRU & ADVANTAGE & RenmeiRei & REBUILD ARRU   &   Animedia
А вы ничего не забыли?
наверх

Последние поступления