ARRU





Kore wa Zombie Desu ka?
Уж не зомби ли это? (2011)[01 - 12 из 12][BD-Rip][HWP]   Bookmark


Скачать вход / регистрация
Тема на форуме Обсудить аниме (комментариев: 144)
Обсуждение раздачи (комментариев: 94)
ОписаниеKore wa Zombie Desu ka? / Уж не зомби ли это? (2011)[01 - 12 из 12][BD-Rip][HWP]
Оригинальное название: これはゾンビですか?
Английское название: Kore wa Zombie Desu ka?
Русское название: Уж не зомби ли это?
Страна: Япония
Год выпуска / период трансляции: 2011
Жанр: комедия, мистика, этти, пародия
Количество эпизодов ТВ: 12
Продолжительность: 25 мин
Режиссёр: Канасаки Такаоми
Автор оригинала: Кимура Синъити
Студия:


Описание:
Старшеклассник Аюму Айкава в огне не горит, в воде не тонет, даже грузовики ему не страшны. Нет, нет, Аюму не супермен! Он – жертва серийного убийцы, возвращенный к жизни некроманткой Эукливуд Хеллсайт, миниатюрной милой девушкой. Кстати, малышка Эу переселилась в квартиру своего творения, чтобы наблюдать за необычным зомби, который получил сверхчеловеческую силу, выносливость и даже магические способности. Теперь главный герой каждую ночь патрулирует тихие уголки родного города, чтобы поквитаться с маньяком – причиной своего нынешнего состояния. При этом парень не забывает ходить в школу и вести нехитрое хозяйство, благо гостья его не обременяет – в основном пишет записки, ест и спит.
Но недолго возвращенец с того света наслаждался тишиной и покоем! Во время одного из рейдов Аюму наткнулся на юную волшебницу Харуну, сражающуюся со злобными духами Мегало (то есть «большими»). Ввязавшись в чужой бой, парень совершенно случайно поглотил почти всю силу новой знакомой (ничего не напоминает?) и теперь должен принять ее миссию. Вот только при этом на новом защитнике человечества появляются не благородные темные одежды, а костюм махо-сёдзё! Излишне говорить, что шумная и непоседливая Харуна тоже поселилась с героем сериала. А если учесть, что вскоре к компании прибилась ниндзя-вампир Сера, то простой японский зомби собрал просто уникальный гарем!
© Hollow

Названия эпизодов:

01. Yes, I Am a Masou-Shoujo
02. No, I'm a Bloodsucking Ninja
03. Yes, I Have Twin Tails
04. Am I Radiant?
05. Yes, It's Kyo-Tofu
06. Yes, I am the Harbinger of Death
07. Hey, Where Are You?
08. Hehe, I'm a School Wife
09. Yes, I'm a Great Stripper
10. No, That Will Explode
11. Yes, Stay at My Place!
12. Yes, Still Goes On


Источник рипа: BD-Rip [Yousei-raws]
Автор рипа\энкод: Renmei Rei
Тип видео: Без хардсаба
Контейнер: AVI
Видео: XviD (Build 64) | 720 x 404 pixels | 23,976 fps | ~1600 kbps ;

Аудио:
RUS: AC-3 | 48.0 KHz | stereo | 192 Kbps;
JAP:  AC-3 | 48.0 KHz | stereo | 256 Kbps

Субтитры: Ru - soft [SRT, SSA][Advantage]
Перевод: Advantage
Озвучивание: Persona99

MediaInfo: - показать
Общее
Полное имя                               : R:\Video\HWP\Kore wa Zombie Desuka (TV)[1-12 of 12][BD-Rip][HWP][AnimeReactor.ru]\Kore wa Zombie Desuka [01 of 12][BDRip][720 x 404 XviD AC3][GetSmart & AnimeReactor.ru].avi
Формат                                   : AVI
Формат/Информация                        : Audio Video Interleave
Размер файла                             : 366 Мбайт
Продолжительность                        : 24 м.
Общий поток                              : 2072 Кбит/сек
Программа кодирования                    : VirtualDubModRus 1.5.10.2 (build 2542/release)
Библиотека кодирования                   : VirtualDubMod build 2542/release

Видео
Идентификатор                            : 0
Формат                                   : MPEG-4 Visual
Профиль формата                          : Advanced Simple@L5
Параметр BVOP формата                    : 2
Параметр QPel формата                    : Нет
Параметр GMC формата                     : Без точки перехода
Параметр матрицы формата                 : Default (H.263)
Идентификатор кодека                     : XVID
Идентификатор кодека/Подсказка           : XviD
Продолжительность                        : 24 м.
Битрейт                                  : 1609 Кбит/сек
Ширина                                   : 720 пикселей
Высота                                   : 404 пикселя
Соотношение сторон                       : 16:9
Частота кадров                           : 23,976 кадра/сек
Цветовое пространство                    : YUV
Субдискретизация насыщенности            : 4:2:0
Битовая глубина                          : 8 бит
Тип развёртки                            : Прогрессивная
Метод сжатия                             : С потерями
Бит/(Пиксели*Кадры)                      : 0.231
Размер потока                            : 285 Мбайт (78%)
Библиотека кодирования                   : XviD 64

Аудио #1
Идентификатор                            : 1
Формат                                   : AC-3
Формат/Информация                        : Audio Coding 3
Расширение режима                        : CM (complete main)
Идентификатор кодека                     : 2000
Продолжительность                        : 24 м.
Вид битрейта                             : Постоянный
Битрейт                                  : 192 Кбит/сек
Каналы                                   : 2 канала
Расположение каналов                     : Front: L R
Частота                                  : 48,0 КГц
Битовая глубина                          : 16 бит
Метод сжатия                             : С потерями
Размер потока                            : 33,9 Мбайт (9%)
Выравнивание                             : Разделение по промежуткам
Продолжительность промежутка             : 42  мс. (1,00 видеокадр)
Время предзагрузки промежутка            : 500  мс.
Заголовок                                : Russian [Persona99]

Аудио #2
Идентификатор                            : 2
Формат                                   : AC-3
Формат/Информация                        : Audio Coding 3
Расширение режима                        : CM (complete main)
Идентификатор кодека                     : 2000
Продолжительность                        : 24 м.
Вид битрейта                             : Постоянный
Битрейт                                  : 256 Кбит/сек
Каналы                                   : 2 канала
Расположение каналов                     : Front: L R
Частота                                  : 48,0 КГц
Битовая глубина                          : 16 бит
Метод сжатия                             : С потерями
Размер потока                            : 45,3 Мбайт (12%)
Выравнивание                             : Разделение по промежуткам
Продолжительность промежутка             : 42  мс. (1,00 видеокадр)
Время предзагрузки промежутка            : 500  мс.
Заголовок                                : Japanese [Original]


Скриншоты: - показать


Дядя Шарик
Релиз от
источник
ARRU & Get Smart & ADVANTAGE & RenmeiRei & REBUILD ARRU
А вы ничего не забыли?
наверх

Последние поступления