ARRU





Fafner of the Blue Sky: Dead Aggressor
Небесный Фафнир (2004)[1-25 из 25][DVD-Rip][HWP]   Bookmark


Скачать вход / регистрация
Тема на форуме Обсудить аниме (комментариев: 6)
Обсуждение раздачи (комментариев: 4)
ОписаниеFafner of the Blue Sky: Dead Aggressor / Небесный Фафнир (2004)[1-25 из 25][DVD-Rip][HWP]
Оригинальное название: 蒼穹のファフナ
Английское название: Fafner of the Blue Sky: Dead Aggressor
Русское название: Небесный Фафнир
Страна: Япония
Год выпуска : 2004 год
Жанр: приключения, фантастика, меха, драма
Категория: TV
Количество эпизодов: 25 эпизодов
Продолжительность: 24 минуты (25-й эпизод ~ 50 минут)
Режиссёр: Хабара Нобуёси
Сценарий: Яманобэ Кадзуки
Композитор: Сайто Цунэёси
Студия:


Описание:
На землю напали инопланетяне и угрожают последним остаткам людей (Японию уничтожили полностью, но нет это не зеленые человечки, а что то непонятное. Более похожи инопланетяне на живые машины (отсутствие чувств). Будучи на земле, некоторые из них пытаются понять природу человека, его чувства, эмоции, другие же наоборот хотят полной ассимиляции остатков людей. Противостоит им все оставшееся человечество (не очень эффективно). И есть так называемые плавучие острова - последняя надежда человечества, где Японские ученые пытаются спасти мир и найти оружие против инопланетян (фестумов). Для борьбы с фестумами, пилоты мехов (фафнеров) должны ввести в свой организм элементы фестумов, которые медленно их убивают...

Названия эпизодов:
01. Paradise ~ The Beginning
02. Notice ~ Life
03. Mystery ~ Truth
04. Fleeing Sail ~ Setting Sail
05. Promise ~ Oath
06. Short Sky ~ Lie
07. House Thief ~ Parent and Child
08. Discord ~ Kouyou
09. Farewell - Assimilate
10. Chance Encounter - Disassemble
11. Old and New - Human Forces
12. Nonexistence - Impatience
13. Erosion - Festum
14. Awakening - Capture
15. Memories - Scream
16. Welcome Back - Friends
17. Trick - Survival
18. Memories - Father
19. Look - Maya
20. Light - Lamp Light
21. Future - Sakura
22. Power - Protect
23. Pillage - Decoy
24. Dialogue - Mir
25. Azure - Sky


Источник рипа: DVD-Rip
Автор рипа\энкод: Renmei Rei
Тип видео: Без хардсаба
Контейнер: AVI
Видео: XviD (Build 64) | 704 x 528 pixels | 23,976 fps | ~1600 kbps ;

Аудио:
RUS: AC-3 | 48.0 KHz | stereo | 256 Kbps;
JAP:  AC-3 | 48.0 KHz | stereo | 256 Kbps

Субтитры: Ru - soft [SRT][Fiben]
Перевод: Fiben
Озвучивание: мужской одноголосый (1-5), Харука (с 5-25)

MediaInfo: - показать
Общее
Полное имя                               : R:\Video\HWP\Fafner of the Blue Sky (TV)[1-26 of 26][DVD-Rip][HWP][AnimeReactor.ru]\Fafner of the Blue Sky [01 of 26][DVDRip][704 x 528 XviD AC3][AnimeReactor.Ru].avi
Формат                                   : AVI
Формат/Информация                        : Audio Video Interleave
Размер файла                             : 363 Мбайт
Продолжительность                        : 23 м.
Общий поток                              : 2130 Кбит/сек
Программа кодирования                    : VirtualDubModRus 1.5.10.2 (build 2542/release)
Библиотека кодирования                   : VirtualDubMod build 2542/release

Видео
Идентификатор                            : 0
Формат                                   : MPEG-4 Visual
Профиль формата                          : Advanced Simple@L5
Параметр BVOP формата                    : 2
Параметр QPel формата                    : Нет
Параметр GMC формата                     : Без точки перехода
Параметр матрицы формата                 : Default (H.263)
Идентификатор кодека                     : XVID
Идентификатор кодека/Подсказка           : XviD
Продолжительность                        : 23 м.
Битрейт                                  : 1604 Кбит/сек
Ширина                                   : 704 пикселя
Высота                                   : 528 пикселей
Соотношение сторон                       : 4:3
Частота кадров                           : 23,976 кадра/сек
Цветовое пространство                    : YUV
Субдискретизация насыщенности            : 4:2:0
Битовая глубина                          : 8 бит
Тип развёртки                            : Прогрессивная
Метод сжатия                             : С потерями
Бит/(Пиксели*Кадры)                      : 0.180
Размер потока                            : 273 Мбайт (75%)
Библиотека кодирования                   : XviD 64

Аудио #1
Идентификатор                            : 1
Формат                                   : AC-3
Формат/Информация                        : Audio Coding 3
Расширение режима                        : CM (complete main)
Идентификатор кодека                     : 2000
Продолжительность                        : 23 м.
Вид битрейта                             : Постоянный
Битрейт                                  : 256 Кбит/сек
Каналы                                   : 2 канала
Расположение каналов                     : Front: L R
Частота                                  : 48,0 КГц
Битовая глубина                          : 16 бит
Метод сжатия                             : С потерями
Размер потока                            : 43,6 Мбайт (12%)
Выравнивание                             : Разделение по промежуткам
Продолжительность промежутка             : 42  мс. (1,00 видеокадр)
Время предзагрузки промежутка            : 500  мс.
Заголовок                                : Russian

Аудио #2
Идентификатор                            : 2
Формат                                   : AC-3
Формат/Информация                        : Audio Coding 3
Расширение режима                        : CM (complete main)
Идентификатор кодека                     : 2000
Продолжительность                        : 23 м.
Вид битрейта                             : Постоянный
Битрейт                                  : 256 Кбит/сек
Каналы                                   : 2 канала
Расположение каналов                     : Front: L R
Частота                                  : 48,0 КГц
Битовая глубина                          : 16 бит
Метод сжатия                             : С потерями
Размер потока                            : 43,6 Мбайт (12%)
Выравнивание                             : Разделение по промежуткам
Продолжительность промежутка             : 42  мс. (1,00 видеокадр)
Время предзагрузки промежутка            : 500  мс.
Заголовок                                : Japanese [Original]

Скриншоты: - показать


Дядя Шарик
Релиз от
источник
ARRU & Netlab AnimaGroup & RenmeiRei & REBUILD ARRU
А вы ничего не забыли?
наверх

Последние поступления