ARRU





Eureka Seven Psalms of Planets
Эврика 7: Псалмы Планет (2005)[01-50 из 50][BDRip][HWP]   Bookmark


Скачать вход / регистрация
Тема на форуме Обсудить аниме (комментариев: 136)
Обсуждение раздачи (комментариев: 26)
ОписаниеEureka Seven Psalms of Planets / Эврика 7: Псалмы Планет (2005)[01-50 из 50][BDRip][HWP]
Оригинальное название: Koukyou Shihen Eureka Seven
Английское название: Eureka Seven Psalms of Planets
Русское название: Эврика 7: Псалмы Планет
Страна: Япония
Год выпуска: 2005
Жанр: фантастика, меха, романтика, драма
Категория: TV
Количество эпизодов: 50 эпизодов
Продолжительность: 25 минут
Режиссёр: Кёда Томоки
Сценарий: Сато Дай
Студия:


Описание:
Рентон Тёрстон мечтает вырваться из родного городка и стать пилотом меха. Однажды рядом с мастерской деда Рентона опускается легендарный Нирваш Тип-Зеро, прототип всех меха. Управляет им загадочная девушка по имени Эврика, которая вместе с повстанцами из Штата Гекко противостоит властям Федерации. Вскоре мечты Рентона сбываются: он попадает на борт знаменитого «Гекко-Го» и становится частью команды. Впереди – приключения и открытия, новые встречи и непростой путь взросления в мире сто двадцать первого века, на планете, которую человечество делит с таинственными кораллианами.

Фантастический сериал «Эврика 7» стал событием сезона и в 2006 году был назван «Лучшим ТВ-сериалом». Качественная анимация, уникальный саундрек, великолепный ансамбль сэйю, отличная проработка персонажей – он заметно выделяется на фоне других произведений жанра меха-сёнэн. Но главное его достоинство – это захватывающий сюжет, который динамично развивается на протяжении всех 50 серий, а также удивительный мир будущего, придуманный «Лучшим Сценаристом 2006 года» Даем Сато.

© Расселл Д. Джонс

Названия эпизодов: - показать

01. Blue Monday
02. Blue Sky Fish
03. Motion Blue
04. Watermelon
05. Vivid Bit
06. Childhood
07. Absolute Defeat
08. Gloriance Brilliance
09. Paper Moon Shine
10. Higher Than The Sun
11. Into The Nature
12. Acperience 1
13. The Beginning
14. Memory Band
15. Human Behaviour
16. Opposite View
17. Sky Rock Gate
18. Ill Communication
19. Acperience 2
20. Substance Abuse
21. Runaway
22. Crackpot
23. Differentia
24. Paradise Lost
25. World's End Garden
26. Morning Glory
27. Helter Skelter
28. Memento Mori
29. Keep On Movin'
30. Change Of Life
31. Animal Attack
32. Start It Up
33. Pacific State
34. Inner Flight
35. Astral Apache
36. Fantasia
37. Raise Your Hand
38. Date of Birth
39. Join The Future
40. Cosmic Trigger
41. Acperience 3
42. Star Dancer
43. The Sunshine Underground
44. It's All In The Mind
45. Don't You Want Me?
46. Planet Rock
47. Acperience 4
48. Ballet Mechanic
49. Shout To The Top!
50. Acperience 5


Источник рипа: BD-Rip [Coalgirls]
Автор рипа\энкод: Renmei Rei
Тип видео: Без хардсаба
Контейнер: AVI
Видео: XviD (Build 64) | 720 x 540 pixels | 23,976 fps | ~1600 - 2100 kbps ;

Аудио:
RUS: AC-3 | 48.0 KHz | stereo | 256 Kbps;
JAP:  AC-3 | 48.0 KHz | stereo | 256 Kbps

Субтитры: Ru - soft [SRT 1-50][SSA 21-50]
Перевод:
1. Asgar & sagitarius & zafhos (1-26)
2. Kilar [Antravoco](27)
3. Andrew, D.Capone, fedor [Aragami Fansubs], Kaito [AniMa] (28-50)
Озвучивание: MifSnaiper & Mirra
Работа со звуком: DJ ATOM

MediaInfo: - показать
Общее
Полное имя                               : R:\Video\HWP\Eureka Seven\Eureka Seven Psalms of Planets [01 of 50][BDRip][720 x 540 XviD AC3][Sem&K  & Animereactor.ru].avi
Формат                                   : AVI
Формат/Информация                        : Audio Video Interleave
Размер файла                             : 367 Мбайт
Продолжительность                        : 24 м.
Общий поток                              : 2131 Кбит/сек
Программа кодирования                    : VirtualDubModRus 1.5.10.2 (build 2542/release)
Библиотека кодирования                   : VirtualDubMod build 2542/release

Видео
Идентификатор                            : 0
Формат                                   : MPEG-4 Visual
Профиль формата                          : Advanced Simple@L5
Параметр BVOP формата                    : 2
Параметр QPel формата                    : Нет
Параметр GMC формата                     : Без точки перехода
Параметр матрицы формата                 : Default (H.263)
Идентификатор кодека                     : XVID
Идентификатор кодека/Подсказка           : XviD
Продолжительность                        : 24 м.
Битрейт                                  : 1605 Кбит/сек
Ширина                                   : 720 пикселей
Высота                                   : 540 пикселей
Соотношение сторон                       : 4:3
Частота кадров                           : 23,976 кадра/сек
Цветовое пространство                    : YUV
Субдискретизация насыщенности            : 4:2:0
Битовая глубина                          : 8 бит
Тип развёртки                            : Прогрессивная
Метод сжатия                             : С потерями
Бит/(Пиксели*Кадры)                      : 0.172
Размер потока                            : 276 Мбайт (75%)
Библиотека кодирования                   : XviD 64

Аудио #1
Идентификатор                            : 1
Формат                                   : AC-3
Формат/Информация                        : Audio Coding 3
Расширение режима                        : CM (complete main)
Идентификатор кодека                     : 2000
Продолжительность                        : 24 м.
Вид битрейта                             : Постоянный
Битрейт                                  : 256 Кбит/сек
Каналы                                   : 2 канала
Расположение каналов                     : Front: L R
Частота                                  : 48,0 КГц
Битовая глубина                          : 16 бит
Метод сжатия                             : С потерями
Размер потока                            : 44,0 Мбайт (12%)
Выравнивание                             : Разделение по промежуткам
Продолжительность промежутка             : 42  мс. (1,00 видеокадр)
Время предзагрузки промежутка            : 500  мс.
Заголовок                                : Russian [MifSnaiper & Mirra]

Аудио #2
Идентификатор                            : 2
Формат                                   : AC-3
Формат/Информация                        : Audio Coding 3
Расширение режима                        : CM (complete main)
Идентификатор кодека                     : 2000
Продолжительность                        : 24 м.
Вид битрейта                             : Постоянный
Битрейт                                  : 256 Кбит/сек
Каналы                                   : 2 канала
Расположение каналов                     : Front: L R
Частота                                  : 48,0 КГц
Битовая глубина                          : 16 бит
Метод сжатия                             : С потерями
Размер потока                            : 44,0 Мбайт (12%)
Выравнивание                             : Разделение по промежуткам
Продолжительность промежутка             : 42  мс. (1,00 видеокадр)
Время предзагрузки промежутка            : 500  мс.
Заголовок                                : Japanese [Original]


Скриншоты: - показать



Дядя Шарик
Релиз от
источник
ARRU & MifSnaiper & OpenDub & SeM & RenmeiRei   &   REBUILD ARRU
А вы ничего не забыли?
наверх

Последние поступления