ARRU





Ichiban Ushiro no Daimaou
Главный кандидат в князи тьмы (2010)[1-12 из 12][BD-rip][HWP]   Bookmark


Скачать вход / регистрация
Тема на форуме Обсудить аниме (комментариев: 358)
Обсуждение раздачи (комментариев: 92)
ОписаниеIchiban Ushiro no Daimaou / Главный кандидат в князи тьмы (2010)[1-12 из 12][BD-rip][HWP]
Оригинальное название: Ichiban Ushiro no Daimaou
Русское название: Главный кандидат в князи тьмы
Год выпуска: 2010
Страна: Япония
Жанр: приключения, фэнтези, этти
Продолжительность: ТВ (12 эп.), 25 мин.
Режиссер: Ватанабэ Такаси
Автор оригинала: Мидзуки Сётаро
Студия:


Описание:Очередной альтернативный мир слияния магии и высоких технологий – вовсе не идиллия. Не так давно могучий темный маг собрал войско демонов и чуть не уничтожил существующий порядок. От отступника смогли избавиться, но его именем до сих пор пугают детей. Впрочем, жить с тех пор стало легче, и вот Акуто Сай, талантливый сирота, выросший в церковном приюте, поступает в магическую академию Константа. Честный и благородный Сай горит желанием принести пользу людям и, раз уж вырос в лоне церкви, мечтает стать не меньше, чем Первосвященником. Осталась самая малость – пройти испытание магическим оракулом, который, изучив претендента, безошибочно определяет его призвание и профессию. Вердикт оракула оказался прост – в академию прибыл будущий Владыка Демонов!
Вот такая судьба ждала несчастного парня. Впрочем, отойдя от шока, главный герой постепенно понял, что люди в академии далеки от слепого фанатизма, а кое для кого он неожиданно «вошел в авторитет». Учителя дали понять, что каждый должен сам решать свои проблемы, причем рамки допустимого в Константе весьма широки. Ну а что до девушек – они в любом мире тянутся к «плохим парням», так что скучная жизнь Акуто не грозила. Главное, чтобы среди бесконечной череды интриг, магических дуэлей и борьбы за жизнь герою хватило времени разобраться – кто он, и что с ним, собственно, на самом деле происходит?

© Hollow

Названия эпизодов:

01. The Devil King is Born!
02. The Odd Observer
03. The Upperclassman Who's a Bit Scary
04. The Isolation Cell is Fun?
05. Beware of the Underground Maze
06. Let's Go to School by the Sea!
07. The Legendary Hero Appears!
08. Do You Have a Crush?
09. The Marriage Interview Chaos
10. Sai Akuto's Imperial Capital War
11. The Girls' Final Battle
12. The End is Perfect?


Источник рипа: BD-Rip [Esper-raws]
Автор рипа\энкод: Renmei Rei
Тип видео: Без хардсаба
Контейнер: AVI
Видео: XviD (Build 64) | 720 x 404 pixels | 23,976 fps | ~1600 kbps ;

Аудио:
RUS1: AC-3 | 48.0 KHz | stereo | 256 Kbps GreH и Eladiel (1-12 of 12)
RUS2: AC-3 | 48.0 KHz | stereo | 256 Kbps Persona 99 (1-12 of 12 + 6 specials)
JAP:  AC-3 | 48.0 KHz | stereo | 256 Kbps

Субтитры: Ru - soft [SRT, SSA][Antravoco]
Перевод:
Antravoco - показать
k. OS , Kekcelt , Reaper


MediaInfo: - показать
Общее
Полное имя                               : R:\Video\HWP\Ichiban Ushiro no Daimaou HWP\Ichiban Ushiro no Daimaou [01 of 12][BDRip][720 x 404 XviD AC3][AnimeReactor.ru].avi
Формат                                   : AVI
Формат/Информация                        : Audio Video Interleave
Размер файла                             : 405 Мбайт
Продолжительность                        : 23 м.
Общий поток                              : 2393 Кбит/сек
Программа кодирования                    : VirtualDubModRus 1.5.10.2 (build 2542/release)
Библиотека кодирования                   : VirtualDubMod build 2542/release

Видео
Идентификатор                            : 0
Формат                                   : MPEG-4 Visual
Профиль формата                          : Advanced Simple@L5
Параметр BVOP формата                    : 2
Параметр QPel формата                    : Нет
Параметр GMC формата                     : Без точки перехода
Параметр матрицы формата                 : Default (H.263)
Идентификатор кодека                     : XVID
Идентификатор кодека/Подсказка           : XviD
Продолжительность                        : 23 м.
Битрейт                                  : 1607 Кбит/сек
Ширина                                   : 720 пикселей
Высота                                   : 404 пикселя
Соотношение сторон                       : 16:9
Частота кадров                           : 23,976 кадра/сек
Цветовое пространство                    : YUV
Субдискретизация насыщенности            : 4:2:0
Битовая глубина                          : 8 бит
Тип развёртки                            : Прогрессивная
Метод сжатия                             : С потерями
Бит/(Пиксели*Кадры)                      : 0.230
Размер потока                            : 272 Мбайт (67%)
Библиотека кодирования                   : XviD 64

Аудио #1
Идентификатор                            : 1
Формат                                   : AC-3
Формат/Информация                        : Audio Coding 3
Расширение режима                        : CM (complete main)
Идентификатор кодека                     : 2000
Продолжительность                        : 23 м.
Вид битрейта                             : Постоянный
Битрейт                                  : 256 Кбит/сек
Каналы                                   : 2 канала
Расположение каналов                     : Front: L R
Частота                                  : 48,0 КГц
Битовая глубина                          : 16 бит
Метод сжатия                             : С потерями
Размер потока                            : 43,4 Мбайт (11%)
Выравнивание                             : Разделение по промежуткам
Продолжительность промежутка             : 42  мс. (1,00 видеокадр)
Время предзагрузки промежутка            : 500  мс.
Заголовок                                : Russian [GreH и Eladiel]

Аудио #2
Идентификатор                            : 2
Формат                                   : AC-3
Формат/Информация                        : Audio Coding 3
Расширение режима                        : CM (complete main)
Идентификатор кодека                     : 2000
Продолжительность                        : 23 м.
Вид битрейта                             : Постоянный
Битрейт                                  : 256 Кбит/сек
Каналы                                   : 2 канала
Расположение каналов                     : Front: L R
Частота                                  : 48,0 КГц
Битовая глубина                          : 16 бит
Метод сжатия                             : С потерями
Размер потока                            : 43,3 Мбайт (11%)
Выравнивание                             : Разделение по промежуткам
Продолжительность промежутка             : 42  мс. (1,00 видеокадр)
Время предзагрузки промежутка            : 500  мс.
Заголовок                                : Russian [Persona99]

Аудио #3
Идентификатор                            : 3
Формат                                   : AC-3
Формат/Информация                        : Audio Coding 3
Расширение режима                        : CM (complete main)
Идентификатор кодека                     : 2000
Продолжительность                        : 23 м.
Вид битрейта                             : Постоянный
Битрейт                                  : 256 Кбит/сек
Каналы                                   : 2 канала
Расположение каналов                     : Front: L R
Частота                                  : 48,0 КГц
Битовая глубина                          : 16 бит
Метод сжатия                             : С потерями
Размер потока                            : 43,4 Мбайт (11%)
Выравнивание                             : Разделение по промежуткам
Продолжительность промежутка             : 42  мс. (1,00 видеокадр)
Время предзагрузки промежутка            : 500  мс.
Заголовок                                : Japanese [Original]


Скриншоты: - показать


Дядя Шарик
Релиз от
источник
ARRU & Get Smart & RenmeiRei & REBUILD ARRU   &   Animedia
А вы ничего не забыли?
наверх

Последние поступления