ARRU





Chaos;Head
Хаос; Вершина (2008)[01-12 из 12][BDRip][HWP]   Bookmark


Скачать вход / регистрация
Тема на форуме Обсудить аниме (комментариев: 343)
Обсуждение раздачи (комментариев: 131)
Смотреть онлайн
ОписаниеChaos;Head / Хаос; Вершина (2008)[01-12 из 12][BDRip][HWP]
Оригинальное название: カオス;ヘッド CHAOS;HEAD
Английское название: Chaos;HEAd
Русское название: Хаос; Вершина
Страна: Япония
Период трансляции: c 09.10.2008 по 25.12.2008
Жанр: триллер, мистика, ужасы, фантастика
Категория: ТВ
Количество эпизодов: 12
Продолжительность: 25 мин.
Режиссёр: Исияма Такааки
Автор оригинала: Иноэ Тосики
Студия:


Описание:
Эрогэ, РПГ и аниме – гремучая смесь, что в полной мере испытал на себе 17-летний Такуми Нисидзё. Как истинный отаку и геймер, он давно уже живет в параллельном мире, почти все время, как Диоген в бочке, проводя в своем «храме» - грузовом контейнере на крыше. Компьютер, Сеть, любимые диски, манга и фигурки, кола и пицца – что еще человеку нужно? Понятно, крышу у Такуми сорвало уже давно: парень уверен, что живет с Сэйрой - героиней любимого аниме (очень напоминающего Elfen Lied). Естественно, девушки 3D (так он зовет реальный мир) героя не интересуют, но пока у него хватает соображения изредка посещать школу, чтобы не выгнали. Там он и услышал про «НьюГен» - цепь странных самоубийств и кровавых убийств, всколыхнувших мирный район Сибуя. И вот вечером в игровом чате некто снова поминает «НьюГен», настойчиво предлагая собеседникам посмотреть клипы и снимки. Стоило случайно щелкнуть ссылку, и Такуми понял – он попал.

После этого выпадения из реальности преследуют главного героя везде – дома, в школе, на улице. В кошмарах Такуми причудливо смешиваются апокалиптика, мистика, ужасы и детективные сюжеты. Апофеозом параноидальных фантазий служит сцена ритуального убийства в глухой аллее, которое совершает розововолосая красавица, подозрительно похожая на аниме-идола Сэйру. Как и положено, утром эта «девушка из ниоткуда» появляется в классе и мило приветствует Такуми. Парень отчаянно пытается собрать последние остатки разума и здравого смысла, но уже поздно – сериал начинается!
© Hollow

Названия эпизодов:
01. Start Up
02. Identity
03. Contact
04. Initial Shock
05. Guidance
06. Embracement
07. Realization
08. Linkage
09. Rejection
10. Purification
11. Independence
12. Mission


Источник рипа: BD-Rip [Salender-raws]
Автор рипа\энкод: Renmei Rei
Тип видео: Без хардсаба
Контейнер: AVI
Видео: XviD (Build 64) | 720 x 404 pixels | 23,976 fps | ~1600 kbps ;

Аудио:
RUS: mp3 | 44.1 KHz | stereo | 128 Kbps;
JAP:  AC-3 | 48.0 KHz | stereo | 256 Kbps

Субтитры: Ru - soft [SRT, SSA][Advantage]
Перевод:Kekcelt
Корректор: Advokat
Оформление: Rictorn
Озвучивание: Ed89

MediaInfo: - показать
Общее
Полное имя                               : R:\Video\HWP\Chaos Head HWP\Chaos;Head [01 of 12][BDRip][720 x 404 XviD AC3][OriGami & AnimeReactor.ru].avi
Формат                                   : AVI
Формат/Информация                        : Audio Video Interleave
Размер файла                             : 383 Мбайт
Продолжительность                        : 26 м.
Общий поток                              : 2005 Кбит/сек
Программа кодирования                    : VirtualDubModRus 1.5.10.2 (build 2542/release)
Библиотека кодирования                   : VirtualDubMod build 2542/release

Видео
Идентификатор                            : 0
Формат                                   : MPEG-4 Visual
Профиль формата                          : Advanced Simple@L5
Параметр BVOP формата                    : 2
Параметр QPel формата                    : Нет
Параметр GMC формата                     : Без точки перехода
Параметр матрицы формата                 : Default (H.263)
Идентификатор кодека                     : XVID
Идентификатор кодека/Подсказка           : XviD
Продолжительность                        : 26 м.
Битрейт                                  : 1607 Кбит/сек
Ширина                                   : 720 пикселей
Высота                                   : 404 пикселя
Соотношение сторон                       : 16:9
Частота кадров                           : 23,976 кадра/сек
Цветовое пространство                    : YUV
Субдискретизация насыщенности            : 4:2:0
Битовая глубина                          : 8 бит
Тип развёртки                            : Прогрессивная
Метод сжатия                             : С потерями
Бит/(Пиксели*Кадры)                      : 0.230
Размер потока                            : 307 Мбайт (80%)
Библиотека кодирования                   : XviD 64

Аудио #1
Идентификатор                            : 1
Формат                                   : MPEG Audio
Версия формата                           : Version 1
Профиль формата                          : Layer 3
Идентификатор кодека                     : 55
Идентификатор кодека/Подсказка           : MP3
Продолжительность                        : 26 м.
Вид битрейта                             : Постоянный
Битрейт                                  : 128 Кбит/сек
Каналы                                   : 2 канала
Частота                                  : 44,1 КГц
Метод сжатия                             : С потерями
Размер потока                            : 24,4 Мбайт (6%)
Выравнивание                             : Разделение по промежуткам
Продолжительность промежутка             : 42  мс. (1,00 видеокадр)
Время предзагрузки промежутка            : 500  мс.
Заголовок                                : Russian [Ed89]

Аудио #2
Идентификатор                            : 2
Формат                                   : AC-3
Формат/Информация                        : Audio Coding 3
Расширение режима                        : CM (complete main)
Идентификатор кодека                     : 2000
Продолжительность                        : 26 м.
Вид битрейта                             : Постоянный
Битрейт                                  : 256 Кбит/сек
Каналы                                   : 2 канала
Расположение каналов                     : Front: L R
Частота                                  : 48,0 КГц
Битовая глубина                          : 16 бит
Метод сжатия                             : С потерями
Размер потока                            : 48,9 Мбайт (13%)
Выравнивание                             : Разделение по промежуткам
Продолжительность промежутка             : 42  мс. (1,00 видеокадр)
Время предзагрузки промежутка            : 500  мс.
Заголовок                                : Japanese [Original]


Скриншоты: - показать


Дядя Шарик
Релиз от
источник
ARRU & OriGami / ОриГами & ADVANTAGE & RenmeiRei & REBUILD ARRU
А вы ничего не забыли?
наверх

Последние поступления