ARRU





Carnival Phantasm
Карнавальный Фантазм (OVA)(2011)[01-12 из 12][BD-Rip][HWP]   Bookmark


Скачать вход / регистрация
Тема на форуме Обсудить аниме (комментариев: 40)
Обсуждение раздачи (комментариев: 30)
ОписаниеCarnival Phantasm / Карнавальный Фантазм (OVA)(2011)[01-12 из 12][BD-Rip][HWP]
Английское название: Carnival Phantasm
Русское название: Карнавальный Фантазм
Страна: Япония
Год выпуска / период трансляции: c 12.08.2011 по ??.12.2011
Жанр: комедия, пародия
Возрастное ограничение: +14
Количество эпизодов: 12 эп.
Продолжительность: 15 мин.
Студия:
Режиссёр: Киси Сэйдзи
Сценарий: Уэдзу Макото

Описание:
Экранизация манги Take Moon - антологии побочных историй с известными персонажами компании Type-Moon в главных ролях (с героями Fate/Stay Night и Tsukihime).

Эпизоды:
01. The 5th Great Clash of the Magicians: The Holy Grail War
02. Thump! Melty Blood
03. It`s a Daydream Everywhere
04. Badump Date Super Plan
05. Berserker`s First Errand
06. Type Moon Monthly TV Novella Sakura
07. An Expert`s Gift
08. Saber at Work
09. Holy Grail Grand Prix
10. Brainwash Detective Loli Reversion
11. Final Dead Lancer
12. Badump Date Super Plan: Answer


Источник рипа: BD-Rip [Salender-raws]
Автор рипа\энкод: Renmei Rei
Тип видео: Без хардсаба
Контейнер: AVI
Видео: XviD (Build 64) | 720 x 404 pixels | 23,976 fps | ~1600 kbps ;

Аудио:
RUS: AC-3 | 48.0 KHz | stereo | 256 Kbps;
JAP:  AC-3 | 48.0 KHz | stereo | 256 Kbps

Субтитры: Ru - soft [SRT,SSA][Advantage 1-5][PhantasmSubs 6-12]

Перевод: 1-5 Advantage (Jaga, Lighter235), 6-12 PhantasmSubs
Озвучивание: Jeferson

MediaInfo: - показать
Общее
Полное имя                               : R:\Video\HWP\Carnival Phantasm\Carnival Phantasm [01 of 12][BDRip][720x404 XviD AC3][JeFerSon & AnimeReactor.ru].avi
Формат                                   : AVI
Формат/Информация                        : Audio Video Interleave
Размер файла                             : 203 Мбайт
Продолжительность                        : 13 м.
Общий поток                              : 2139 Кбит/сек
Программа кодирования                    : VirtualDubModRus 1.5.10.2 (build 2542/release)
Библиотека кодирования                   : VirtualDubMod build 2542/release

Видео
Идентификатор                            : 0
Формат                                   : MPEG-4 Visual
Профиль формата                          : Advanced Simple@L5
Параметр BVOP формата                    : 2
Параметр QPel формата                    : Нет
Параметр GMC формата                     : Без точки перехода
Параметр матрицы формата                 : Default (H.263)
Идентификатор кодека                     : XVID
Идентификатор кодека/Подсказка           : XviD
Продолжительность                        : 13 м.
Битрейт                                  : 1612 Кбит/сек
Ширина                                   : 720 пикселей
Высота                                   : 404 пикселя
Соотношение сторон                       : 16:9
Частота кадров                           : 23,976 кадра/сек
Цветовое пространство                    : YUV
Субдискретизация насыщенности            : 4:2:0
Битовая глубина                          : 8 бит
Тип развёртки                            : Прогрессивная
Метод сжатия                             : С потерями
Бит/(Пиксели*Кадры)                      : 0.231
Размер потока                            : 153 Мбайт (75%)
Библиотека кодирования                   : XviD 64

Аудио #1
Идентификатор                            : 1
Формат                                   : AC-3
Формат/Информация                        : Audio Coding 3
Расширение режима                        : CM (complete main)
Идентификатор кодека                     : 2000
Продолжительность                        : 13 м.
Вид битрейта                             : Постоянный
Битрейт                                  : 256 Кбит/сек
Каналы                                   : 2 канала
Расположение каналов                     : Front: L R
Частота                                  : 48,0 КГц
Битовая глубина                          : 16 бит
Метод сжатия                             : С потерями
Размер потока                            : 24,3 Мбайт (12%)
Выравнивание                             : Разделение по промежуткам
Продолжительность промежутка             : 42  мс. (1,00 видеокадр)
Время предзагрузки промежутка            : 500  мс.
Заголовок                                : Russian [Jeferson]

Аудио #2
Идентификатор                            : 2
Формат                                   : AC-3
Формат/Информация                        : Audio Coding 3
Расширение режима                        : CM (complete main)
Идентификатор кодека                     : 2000
Продолжительность                        : 13 м.
Вид битрейта                             : Постоянный
Битрейт                                  : 256 Кбит/сек
Каналы                                   : 2 канала
Расположение каналов                     : Front: L R
Частота                                  : 48,0 КГц
Битовая глубина                          : 16 бит
Метод сжатия                             : С потерями
Размер потока                            : 24,3 Мбайт (12%)
Выравнивание                             : Разделение по промежуткам
Продолжительность промежутка             : 42  мс. (1,00 видеокадр)
Время предзагрузки промежутка            : 500  мс.
Заголовок                                : Japanese [Original]


Скриншоты: - показать


Дядя Шарик
Релиз от
источник
ARRU & OpenDub & JeFerSon & ADVANTAGE & RenmeiRei   &   REBUILD ARRU
А вы ничего не забыли?
наверх

Последние поступления