ARRU





Onigamiden
Легенда о Тысячелетнем Драконе (2011)(movie)[BD-Rip][HWP]   Bookmark


Скачать
Сгенерировать линк на торрент файл
Полученный линк проживёт 1 минуту.
 магнет линк | TxT и Zip линки на безрейтинговом трекере
Тема на форуме Обсудить фильм (комментариев: 10)
ОписаниеOnigamiden | Легенда о Тысячелетнем Драконе (2011)(movie)[BD-Rip][HWP]
Оригинальное название: Onigamiden
Русское название: Легенда о Тысячелетнем Драконе
Выпуск:  29.04.2011
Страна: Япония
Жанр:  приключения, фэнтези
Продолжительность: 100 минут
Режиссёр: Кавасаки Хироцугу
Автор оригинала: Такада Такафуми
Студия:


Краткое содержание:
Станьте свидетелем захватывающего путешествия 15-летнего Юня Тендо, против собственной воли оказавшегося в далёком таинственном прошлом, кишащем монстрами, драконами и загадочными потусторонними силами. Мальчик отправляется на 1200 лет назад не предполагая, что он единственный, кто может спасти человечество и положить конец войне между людьми и демонами. В долгой череде сверхъестественных сражений и зрелищных приключений он проходит путь от обычного подростка до героя, призванного побороть зло и восстановить в мире спокойствие и гармонию.

Источник рипа: BD-Rip [CHD]
Автор рипа\энкод: Renmei Rei
Тип видео: Без хардсаба
Контейнер: AVI
Видео: XviD (Build 64) | 720 x 306 pixels | 23,976 fps | ~1200 kbps ;

Аудио:
RUS: AC-3 | 48.0 KHz | 6 chanels | 448 Kbps;
JAP:  AC-3 | 48.0 KHz | 6 chanels | 448 Kbps

Субтитры: Ru - soft [SRT, SSA][Grayman]
Перевод: Grayman
Тайминг: rek_tar
Работа со звуком: BalFor
Озвучивание: Viki

MediaInfo: - показать
Общее
Полное имя                               : R:\Video\HWP\Onigamiden (movie)[BD-Rip][HWP]\Onigamiden [MOVIE][BDRip][720 x 306 XviD AC3][Ru Jp].avi
Формат                                   : AVI
Формат/Информация                        : Audio Video Interleave
Размер файла                             : 1,45 Гбайт
Продолжительность                        : 1 ч. 38 м.
Общий поток                              : 2111 Кбит/сек
Программа кодирования                    : VirtualDubModRus 1.5.10.2 (build 2542/release)
Библиотека кодирования                   : VirtualDubMod build 2542/release

Видео
Идентификатор                            : 0
Формат                                   : MPEG-4 Visual
Профиль формата                          : Advanced Simple@L5
Параметр BVOP формата                    : 2
Параметр QPel формата                    : Нет
Параметр GMC формата                     : Без точки перехода
Параметр матрицы формата                 : Default (H.263)
Идентификатор кодека                     : XVID
Идентификатор кодека/Подсказка           : XviD
Продолжительность                        : 1 ч. 38 м.
Битрейт                                  : 1201 Кбит/сек
Ширина                                   : 720 пикселей
Высота                                   : 306 пикселей
Соотношение сторон                       : 2,35:1
Частота кадров                           : 23,976 кадра/сек
Цветовое пространство                    : YUV
Субдискретизация насыщенности            : 4:2:0
Битовая глубина                          : 8 бит
Тип развёртки                            : Прогрессивная
Метод сжатия                             : С потерями
Бит/(Пиксели*Кадры)                      : 0.227
Размер потока                            : 843 Мбайт (57%)
Библиотека кодирования                   : XviD 64

Аудио #1
Идентификатор                            : 1
Формат                                   : AC-3
Формат/Информация                        : Audio Coding 3
Расширение режима                        : CM (complete main)
Идентификатор кодека                     : 2000
Продолжительность                        : 1 ч. 38 м.
Вид битрейта                             : Постоянный
Битрейт                                  : 448 Кбит/сек
Каналы                                   : 6 каналов
Расположение каналов                     : Front: L C R, Side: L R, LFE
Частота                                  : 48,0 КГц
Битовая глубина                          : 16 бит
Метод сжатия                             : С потерями
Размер потока                            : 315 Мбайт (21%)
Выравнивание                             : Разделение по промежуткам
Продолжительность промежутка             : 42  мс. (1,00 видеокадр)
Время предзагрузки промежутка            : 500  мс.
Заголовок                                : Russian [Viki]

Аудио #2
Идентификатор                            : 2
Формат                                   : AC-3
Формат/Информация                        : Audio Coding 3
Расширение режима                        : CM (complete main)
Идентификатор кодека                     : 2000
Продолжительность                        : 1 ч. 38 м.
Вид битрейта                             : Постоянный
Битрейт                                  : 448 Кбит/сек
Каналы                                   : 6 каналов
Расположение каналов                     : Front: L C R, Side: L R, LFE
Частота                                  : 48,0 КГц
Битовая глубина                          : 16 бит
Метод сжатия                             : С потерями
Размер потока                            : 315 Мбайт (21%)
Выравнивание                             : Разделение по промежуткам
Продолжительность промежутка             : 42  мс. (1,00 видеокадр)
Время предзагрузки промежутка            : 500  мс.
Заголовок                                : Japanese [Original]


Скриншоты: - показать
Дядя Шарик
Релиз от
источник
ARRU & RenmeiRei   &   Viki, AniFilm
А вы ничего не забыли?
наверх

Последние поступления