ARRU





Mayo Chiki!
Эй, цыпочка! (2011)[01-13 из 13][BDRip][HWP]   Bookmark


Скачать вход / регистрация
Тема на форуме Обсудить аниме (комментариев: 85)
Обсуждение раздачи (комментариев: 65)
ОписаниеMayo Chiki! / Эй, цыпочка! (2011)[01-13 из 13][BDRip][HWP]
Оригинальное название: まよチキ!
Английское название: Mayo Chiki!
Русское название: Эй, цыпочка!
Страна: Япония
Год выпуска: 2011
Жанр: комедия, романтика, школа, этти
Количество эпизодов: 13
Продолжительность: 25 минут
Студия:


Режиссёр: Кавагути Кэйитиро

Описание:
Женщины в семье Сакамати настолько суровы, что единственный сын Киндзиро тренировался с матерью и сестрой с 5-летнего возраста, правда, больше в виде боксерской груши или борцовского манекена. В итоге к 17 годам парень стал жилист, крепок и вынослив, а с другой стороны – на любое женское прикосновение начал выдавать шоковую реакцию с носовым кровотечением. Поведение героя, избегающего девушек, в старшей школе не одобрили – одни сочли Сакамати слабаком, выведя из его имени прозвище Цыпленок, другие стали думать и вовсе нехорошее. Да и сам Дзиро всерьез забеспокоился, когда понял, что восхищается своим ровесником, красавцем Субару Коноэ – дворецким директорской дочки Канадэ Судзуцуки.

Конечно же, именно злосчастный Киндзиро открыл, что Субару – переодетая девушка, и у нее есть на то свои причины. А когда силовое решение не прошло, хитроумная «принцесса» Канадэ, оказавшаяся неглупой и раскованной особой, предложила сделку – парень молчит о случившемся, а взамен избавится от гинофобии. В таком деле нужна гарантия, потому проштрафившаяся «дворецкая» будет жить в доме Сакамати, присматривая за ним и вместе с другими героинями активно участвуя в процессе «исцеления». Ибо всем известно – подобное лечится подобным!
© Hollow

Название эпизодов:
01. End of Earth
02. I Fell in Love!
03. Of Course, In the Bed!
04. Don`t Stare So Much...
05. Go Out With Me!
06. Let`s Start a War
07. Let`s Run Away!
08. First Time Doing What?
09. I`m Travelling for a While
10. Let`s Eat
11. Nyu!
12. Dismay of a Butler and I, the Chicken
13. Please Grope Me!


Источник рипа: BD-Rip [Yousei-raws]
Автор рипа\энкод: Renmei Rei
Тип видео: Без хардсаба
Контейнер: AVI
Видео: XviD (Build 64) | 720 x 404 pixels | 23,976 fps | ~1600 kbps ;

Аудио:
RUS1: mp3 | 48.0 KHz | stereo | 192 Kbps [Vulpes Vulpes]
RUS2: AC-3 | 48.0 KHz | stereo | 256 Kbps [Milirina]
JAP:  AC-3 | 48.0 KHz | stereo | 256 Kbps [Original]

Субтитры: RU - soft [SSA, SRT][Advantage]
Перевод: переводчик/тайм-код/перевод песен/оформление: chainsaws, редакторы: Nerevar, Schum, Tassadar, ZaRRoK

MediaInfo: - показать
Общее
Полное имя                               : R:\Video\HWP\Mayo Chiki [1-13 of 13][BD-Rip][HWP][AnimeReactoor.ru]\Mayo Chiki [01 of 13][720 x 404 XviD mp3 AC3][BD-Rip][Animereactor.ru].avi
Формат                                   : AVI
Формат/Информация                        : Audio Video Interleave
Размер файла                             : 407 Мбайт
Продолжительность                        : 24 м.
Общий поток                              : 2356 Кбит/сек
Программа кодирования                    : VirtualDubModRus 1.5.10.2 (build 2542/release)
Библиотека кодирования                   : VirtualDubMod build 2542/release

Видео
Идентификатор                            : 0
Формат                                   : MPEG-4 Visual
Профиль формата                          : Advanced Simple@L5
Параметр BVOP формата                    : 2
Параметр QPel формата                    : Нет
Параметр GMC формата                     : Без точки перехода
Параметр матрицы формата                 : Default (H.263)
Идентификатор кодека                     : XVID
Идентификатор кодека/Подсказка           : XviD
Продолжительность                        : 24 м.
Битрейт                                  : 1633 Кбит/сек
Ширина                                   : 720 пикселей
Высота                                   : 404 пикселя
Соотношение сторон                       : 16:9
Частота кадров                           : 23,976 кадра/сек
Цветовое пространство                    : YUV
Субдискретизация насыщенности            : 4:2:0
Битовая глубина                          : 8 бит
Тип развёртки                            : Прогрессивная
Метод сжатия                             : С потерями
Бит/(Пиксели*Кадры)                      : 0.234
Размер потока                            : 282 Мбайт (69%)
Библиотека кодирования                   : XviD 64

Аудио #1
Идентификатор                            : 1
Формат                                   : MPEG Audio
Версия формата                           : Version 1
Профиль формата                          : Layer 3
Идентификатор кодека                     : 55
Идентификатор кодека/Подсказка           : MP3
Продолжительность                        : 24 м.
Вид битрейта                             : Постоянный
Битрейт                                  : 192 Кбит/сек
Каналы                                   : 2 канала
Частота                                  : 48,0 КГц
Метод сжатия                             : С потерями
Размер потока                            : 33,2 Мбайт (8%)
Выравнивание                             : Соединение по промежуткам
Продолжительность промежутка             : 42  мс. (1,00 видеокадр)
Время предзагрузки промежутка            : 504  мс.
Заголовок                                : Russian [Vulpes Vulpes]

Аудио #2
Идентификатор                            : 2
Формат                                   : AC-3
Формат/Информация                        : Audio Coding 3
Расширение режима                        : CM (complete main)
Идентификатор кодека                     : 2000
Продолжительность                        : 24 м.
Вид битрейта                             : Постоянный
Битрейт                                  : 256 Кбит/сек
Каналы                                   : 2 канала
Расположение каналов                     : Front: L R
Частота                                  : 48,0 КГц
Битовая глубина                          : 16 бит
Метод сжатия                             : С потерями
Размер потока                            : 44,3 Мбайт (11%)
Выравнивание                             : Разделение по промежуткам
Продолжительность промежутка             : 42  мс. (1,00 видеокадр)
Время предзагрузки промежутка            : 500  мс.
Заголовок                                : Russian [Milirina]

Аудио #3
Идентификатор                            : 3
Формат                                   : AC-3
Формат/Информация                        : Audio Coding 3
Расширение режима                        : CM (complete main)
Идентификатор кодека                     : 2000
Продолжительность                        : 24 м.
Вид битрейта                             : Постоянный
Битрейт                                  : 256 Кбит/сек
Каналы                                   : 2 канала
Расположение каналов                     : Front: L R
Частота                                  : 48,0 КГц
Битовая глубина                          : 16 бит
Метод сжатия                             : С потерями
Размер потока                            : 44,3 Мбайт (11%)
Выравнивание                             : Разделение по промежуткам
Продолжительность промежутка             : 42  мс. (1,00 видеокадр)
Время предзагрузки промежутка            : 500  мс.
Заголовок                                : Japanese [Original]


Скриншоты: - показать


Дядя Шарик
Релиз от
источник
ARRU & Anything-Group & Vulpes Vulpes & RenmeiRei & REBUILD ARRU
А вы ничего не забыли?
наверх

Последние поступления