ARRU





Kannagi: Crazy Shrine Maidens
Каннаги: Девы святого дерева (2008)[1-13 из 13 + Special][Bonus][DVD-Rip]   Bookmark


Скачать вход / регистрация
Тема на форуме Обсудить аниме (комментариев: 58)
Обсуждение раздачи (комментариев: 119)
Смотреть онлайн
ОписаниеKannagi: Crazy Shrine Maidens / Каннаги: Девы святого дерева (2008)[1-13 из 13 + Special][Bonus][DVD-Rip]
Оригинальное название: かんなぎ
Английское название: Kannagi: Crazy Shrine Maidens
Русское название: Каннаги: Девы святого дерева
Страна: Япония
Год выпуска / период трансляции: c 04.10.2008 по 27.12.2008
Жанр: комедия, фэнтези
Категория: TV
Количество эпизодов: 13
Продолжительность: 25 мин
Студия:

Режиссёр: Ямамото Ютака
Снято по манге: Kannagi
Автор оригинала: Такэнаси Эри

Описание:
В детстве Дзин Микурия любил играть в старом синтоистском храме под вечнозеленой священной нагеей. Парень вырос, храм снесли, а дерево спилили. Художник-любитель Дзин, тонко чувствующий природу и не чуждый сверхъестественного, выпросил кусок священного дерева, чтобы вырезать из него статую девушки. Обняв свое творение, Дзин вознес горячую молитву богам, прося их простить людей за неразумие. Разумеется, произошло чудо, и кусок дерева превратился в красавицу по имени Наги – земное воплощение богини-хранительницы окрестных земель. Освоившись в новом мире, Наги поняла, что силы у нее не те и исполнять свои обязанности придется с активной помощью нового знакомого. Погрузившись в медитацию по поводу стратегии борьбы со злом, богиня не заметила, как заскучавший хозяин включил ТВ, и, как на грех, попал на аниме жанра «махо-седзе». Знамение судьбы, понимаете ли… Отныне Наги решила вести жизнь обычной школьницы, а в промежутках бороться за любовь и справедливость на вверенной территории, назначив бедного Дзина на роль местного Мамору.

Увидев, как Наги развлекается, решила воплотиться и ее младшая сестренка Занге-тян, богиня соседних земель. Только она смотрела другое аниме, в итоге решив стать в мире смертных тайной поп-звездой. Познакомившись с этим улетным комедийно-пародийным сериалом от режиссера «Канон-2006» и «Судзумии», вы поймете, что он далеко ушел от классического сюжета «Пигмалиона»!
© Hollow


Названия эпизодов:
01. The Shrine Girl
02. Gyokuon Attack!
03. The School's Goddess
04. Sisters
05. Discovery! Love the Dining Table God
06. Nagi-tan`s Heart-stopping Craziness
07. Cutie Big Pinch! The Super Spicy Hitsumabushi Strikes Back
08. The Hill of Straying Storm
09. Embarassing School Comedy
10. Mike Takako, the Karaoke Warrior
11. Yet, Uncertain
12. Truly Ephermal
13. Jin, Lovestruck

DVD-спэшл:
14. If You Are A Shrine Maiden... (27.05.2009)
+ Bonus


Источник рипа: DVD
Автор рипа\энкод: не известно
Контейнер: mkv
Видео: AVC (x.264) | 720 x 480 pixels [AR 853 x 480] | 29,970 fps | ~1400-1500 kbps ;

Аудио:
RUS: mp3 | 48.0 KHz | stereo | 192 Kbps;
JAP:  FLAC | 48.0 KHz | stereo | ~ 600 Kbps

Субтитры:
1. RU - soft [SSA][встроенные][надписи][Advantage]
2. EN - soft [SSA][встроенные]
Перевод: Xyanide, anisab-subs, Matador
Озвучивание: Valkrist & Keneretta

MediaInfo: - показать
Общее - показать

Уникальный идентификатор                 : 202561582347517722335787688568603984034 (0x9863F1136B2A4463B64430467562C0A2)
Полное имя                               : R:\Video\ARRU Upload\Kannagi Crazy Shrine Maidens [1-13 of 13 + special][Bonus][DVD-Rip][AnimeReactor.ru]\[SHiN-gx_Genjo] Kannagi [01 of 13][DVD][720x480 AR h.264 FLAC][v3][MCA & AnimeReactor.ru][E206A400].mkv
Формат                                   : Matroska
Версия формата                           : Version 2
Размер файла                             : 380 Мбайт
Продолжительность                        : 23 м.
Режим общего битрейта                    : Переменный
Общий поток                              : 2244 Кбит/сек
Название фильма                          : Kannagi 1 - The Shrine Girl was brought to you by SHiN-gx & Genjo-Subs
Дата кодирования                         : UTC 2012-03-24 11:38:35
Программа кодирования                    : mkvmerge v5.3.0 ('I could have danced' built on Feb  9 2012 10:38:07
Библиотека кодирования                   : libebml v1.2.3 + libmatroska v1.3.0
Attachment                               : Yes / Yes / Yes / Yes / Yes / Yes / Yes / Yes / Yes / Yes

Видео
Идентификатор                            : 1
Формат                                   : AVC
Формат/Информация                        : Advanced Video Codec
Профиль формата                          : High@L3.1
Параметр CABAC формата                   : Да
Параметр ReFrames формата                : 8 кадров
Режим смешивания                         : Header stripping
Идентификатор кодека                     : V_MPEG4/ISO/AVC
Продолжительность                        : 23 м.
Номинальный битрейт                      : 1429 Кбит/сек
Ширина                                   : 720 пикселей
Высота                                   : 480 пикселей
Соотношение сторон                       : 16:9
Частота кадров                           : 29,970 кадров/сек
Частота кадров в оригинале               : 24,219 кадра/сек
Стандарт вещания                         : NTSC
Цветовое пространство                    : YUV
Субдискретизация насыщенности            : 4:2:0
Битовая глубина                          : 8 бит
Тип развёртки                            : Прогрессивная
Бит/(Пиксели*Кадры)                      : 0.138
Заголовок                                : [SHiN-gx_Genjo]
Библиотека кодирования                   : x264 core 68 r1183M f21daff
Настройки программы                      : cabac=1 / ref=8 / deblock=1:1:1 / analyse=0x3:0x133 / me=umh / subme=7 / psy_rd=0.6:0.0 / mixed_ref=1 / me_range=16 / chroma_me=1 / trellis=2 / 8x8dct=1 / cqm=0 / deadzone=21,11 / chroma_qp_offset=-2 / threads=3 / nr=0 / decimate=1 / mbaff=0 / bframes=16 / b_pyramid=1 / b_adapt=1 / b_bias=0 / direct=3 / wpredb=0 / keyint=250 / keyint_min=25 / scenecut=40 / rc=2pass / bitrate=1429 / ratetol=1.0 / qcomp=0.60 / qpmin=10 / qpmax=51 / qpstep=4 / cplxblur=20.0 / qblur=0.5 / ip_ratio=1.40 / pb_ratio=1.30 / aq=0
Язык                                     : Japanese
Default                                  : Да
Forced                                   : Нет

Аудио #1
Идентификатор                            : 2
Формат                                   : MPEG Audio
Версия формата                           : Version 1
Профиль формата                          : Layer 3
Режим                                    : Joint stereo
Режим смешивания                         : Header stripping
Идентификатор кодека                     : A_MPEG/L3
Идентификатор кодека/Подсказка           : MP3
Продолжительность                        : 23 м.
Вид битрейта                             : Постоянный
Битрейт                                  : 192 Кбит/сек
Каналы                                   : 2 канала
Частота                                  : 48,0 КГц
Метод сжатия                             : С потерями
Размер потока                            : 32,5 Мбайт (9%)
Заголовок                                : [Valkrist & Keneretta]
Язык                                     : Russian
Default                                  : Нет
Forced                                   : Нет

Аудио #2
Идентификатор                            : 3
Формат                                   : FLAC
Формат/Информация                        : Free Lossless Audio Codec
Идентификатор кодека                     : A_FLAC
Продолжительность                        : 23 м.
Вид битрейта                             : Переменный
Каналы                                   : 2 канала
Частота                                  : 48,0 КГц
Битовая глубина                          : 16 бит
Заголовок                                : Original
Библиотека кодирования                   : libFLAC 1.2.1 (UTC 2007-09-17)
Язык                                     : Japanese
Default                                  : Да
Forced                                   : Нет

Текст #1
Идентификатор                            : 4
Формат                                   : ASS
Идентификатор кодека                     : S_TEXT/ASS
Идентификатор кодека/Информация          : Advanced Sub Station Alpha
Метод сжатия                             : Без потерь
Заголовок                                : Xyanide, anisab-subs, Matador
Язык                                     : Russian
Default                                  : Нет
Forced                                   : Нет

Текст #2
Идентификатор                            : 5
Формат                                   : ASS
Идентификатор кодека                     : S_TEXT/ASS
Идентификатор кодека/Информация          : Advanced Sub Station Alpha
Метод сжатия                             : Без потерь
Заголовок                                : Xyanide, anisab-subs, Matador
Default                                  : Нет
Forced                                   : Нет

Текст #3
Идентификатор                            : 6
Формат                                   : ASS
Идентификатор кодека                     : S_TEXT/ASS
Идентификатор кодека/Информация          : Advanced Sub Station Alpha
Метод сжатия                             : Без потерь
Заголовок                                : Kannagi 01 - The Shrine Girl
Язык                                     : English
Default                                  : Да
Forced                                   : Нет

Меню
00:00:00.000                             : en:Chapter 1
00:01:57.034                             : en:Opening theme
00:03:26.998                             : en:Chapter 2
00:14:24.989                             : en:Chapter 3
00:22:04.782                             : en:Ending theme


Тех. данные японской дорожки - показать

Общее
Полное имя                               : R:\[SHiN-gx_Genjo] Kannagi [01 of 13][DVD][720x480 AR h.264 FLAC][v3][MCA & AnimeReactor.ru][E206A400]_track3_jpn.flac
Формат                                   : FLAC
Формат/Информация                        : Free Lossless Audio Codec
Размер файла                             : 99,1 Мбайт
Продолжительность                        : 23 м.
Режим общего битрейта                    : Переменный
Общий поток                              : 585 Кбит/сек
Примечание                               : FLAC ripped by SHiN-gx_Genjo

Аудио
Формат                                   : FLAC
Формат/Информация                        : Free Lossless Audio Codec
Продолжительность                        : 23 м.
Вид битрейта                             : Переменный
Битрейт                                  : 585 Кбит/сек
Каналы                                   : 2 канала
Частота                                  : 48,0 КГц
Битовая глубина                          : 16 бит
Размер потока                            : 99,1 Мбайт (100%)
Библиотека кодирования                   : libFLAC 1.2.1 (UTC 2007-09-17)



Скриншоты: - показать
Дядя Шарик
Релиз от
источник
ARRU & Moscow City Animegroup - MCA & ADVANTAGE & REBUILD ARRU
А вы ничего не забыли?
наверх

Последние поступления