ARRU





Василиск
Basilisk: The Kouga Ninja Scrolls [01-24 из 24][BDRip][1080p]   Bookmark


Скачать вход / регистрация
Тема на форуме Обсудить аниме (комментариев: 31)
Обсуждение раздачи (комментариев: 31)
ОписаниеВасилиск | Basilisk: The Kouga Ninja Scrolls [01-24 из 24][BDRip][1080p]
Оригинальное название: Basilisk: Kôga ninpô chô
Английское название: Basilisk: The Kouga Ninja Scrolls
Русское название: Василиск

Страна: Япония
Год выпуска : 2005
Жанр: самурайский боевик, драма, мистика

Категория: TV
Количество эпизодов: 24 эпизода
Продолжительность: 25 минут
Студия: Gonzo Digimation
Режиссёр: Кидзаки Фуминори
Снято по манге: Basilisk
Автор оригинала: Ямада Футаро

Описание:
Два клана ниндзя, Ига и Кога, издревле враждовали друг с другом. И сверкали мечи, и лилась реками кровь, до тех пор пока на пути древней вражды не встал местный лорд Хаттори Хандзо. И тогда были связаны два клана нерушимым договором, запрещающим стародавнюю вражду.

Время шло, вековая лютая ненависть, хоть и поугасла немного, все равно продолжала тлеть в сердцах непримиримых. Но встали между кланами двое влюбленных, юноша и девушка, два юных сердца, вознамерившиеся вступить в союз и тем самым покончить с древними распрями.

Однако судьба оказалась немилосердна. Волею правителей, которые воспользовались враждой Ига и Кога в собственных целях, договор о ненападении был расторгнут.

И было сказано, что от каждого клана выступят, по десять воинов-ниндзя, и будут они сражаться до последней капли крови, и тот, кто выживет в этой смертельной битве, будет объявлен победителем. Десять человек с каждой стороны. Десять жизней от каждого клана. Двадцать смертей начертано на заветном свитке... (c)

Названия эпизодов: - показать

1. Любить и убивать друг друга
2. Новое начало
3. Страшное насекомое, страшная жестокость
4. Обитель демона, ночные прогулки
5. Обычаи ниндзя
6. Слёзы и любовь
7. Ад человеческой кожи
8. Кровавый туман, пощады не будет
9. Грусть и бесконечный дождь
10. Приказ повелителя
11. Камни и отчаяние
12. Волшебный свет воспоминаний
13. Безумный танец бабочек
14. Лепестки на волнах
15. Бурное море, последний путь
16. Мимолётная картина нежных чувств
17. Скитающиеся во тьме
18. Тьма и заря
19. Неукротимая женщина и заговор
20. Благие намерения
21. Кагэро. Очарование смерти
22. Смертельный ужас
23. Отблеск видений
24. Встретимся в следующей жизни


Качество рипа: BDRip
Автор рипа:elnino243
Тип видео: Без хардсаба
Контейнер: mkv
Видео: AC3 (h264) | 1920x1080 | ~4600 Kbps | 23.976 fps

Аудио:
RUS: 48 kHz, AC3, 2ch, ~192.00 kbps;
JAP: 48 kHz, AC3, 2ch, ~640.00 kbps ;
Субтитры: есть

Перевод: Mega-Anime
Озвучивание: Многоголосый закадровый, "Mega-Anime"

MediaInfo: - показать

Общее
Формат                           : Matroska
Версия формата                   : Version 2
Размер файла                     : 938 Мбайт
Продолжительность                : 24 м.
Общий поток                      : 5376 Кбит/сек
Название фильма                  : Basilisk: The Kouga Ninja Scrolls EP_01 (2005) - Release for HDCLUB
Дата кодирования                 : UTC 2012-03-17 05:52:39
Программа кодирования            : mkvmerge v3.4.0 сборка от May 15 2010 09:38:20
Библиотека кодирования           : libebml v0.8.0 + libmatroska v0.9.0

Видео
Идентификатор                    : 1
Формат                           : AVC
Формат/Информация                : Advanced Video Codec
Профиль формата                  : High@L4.1
Параметр CABAC формата           : Да
Параметр ReFrames формата        : 5 кадров
Идентификатор кодека             : V_MPEG4/ISO/AVC
Продолжительность                : 24 м.
Битрейт                          : 4600 Кбит/сек
Ширина                           : 1920 пикселей
Высота                           : 1080 пикселей
Соотношение сторон               : 16:9
Режим частоты кадров             : Переменный
Частота кадров                   : 23,976 кадра/сек
Цветовое пространство            : YUV
Субдискретизация насыщенности    : 4:2:0
Битовая глубина                  : 8 бит
Тип развёртки                    : Прогрессивная
Бит/(Пиксели*Кадры)              : 0.093
Размер потока                    : 774 Мбайт (83%)
Библиотека кодирования           : x264 core 96
Default                          : Нет
Forced                           : Нет

Аудио #1
Идентификатор                    : 2
Формат                           : AC-3
Формат/Информация                : Audio Coding 3
Профиль формата                  : Dolby Digital
Расширение режима                : CM (complete main)
Идентификатор кодека             : A_AC3
Продолжительность                : 24 м.
Вид битрейта                     : Постоянный
Битрейт                          : 192 Кбит/сек
Каналы                           : 2 канала
Расположение каналов             : Front: L R
Частота                          : 48,0 КГц
Битовая глубина                  : 16 бит
Метод сжатия                     : С потерями
Размер потока                    : 33,5 Мбайт (4%)
Заголовок                        : Mega-Anime
Язык                             : Russian
Default                          : Да
Forced                           : Нет

Аудио #2
Идентификатор                    : 3
Формат                           : AC-3
Формат/Информация                : Audio Coding 3
Расширение режима                : CM (complete main)
Идентификатор кодека             : A_AC3
Продолжительность                : 24 м.
Вид битрейта                     : Постоянный
Битрейт                          : 640 Кбит/сек
Каналы                           : 2 канала
Расположение каналов             : Front: L R
Частота                          : 48,0 КГц
Битовая глубина                  : 16 бит
Метод сжатия                     : С потерями
Размер потока                    : 112 Мбайт (12%)
Заголовок                        : Original
Язык                             : Japanese
Default                          : Нет
Forced                           : Нет

Текст
Идентификатор                    : 4
Формат                           : UTF-8
Идентификатор кодека             : S_TEXT/UTF8
Идентификатор кодека/Информация  : UTF-8 Plain Text
Заголовок                        : Rus sub
Язык                             : Russian
Default                          : Нет
Forced                           : Нет


Скриншоты: - показать


Дядя Шарик
Релиз от
источник
ARRU & - Найдено в сети & REBUILD ARRU
А вы ничего не забыли?
наверх

Последние поступления