ARRU





Gyo (OVA)
Ходуны (2012)[BDRip][HWP]   Bookmark


Скачать вход / регистрация
Тема на форуме Обсудить аниме (комментариев: 15)
Обсуждение раздачи (комментариев: 11)
ОписаниеGyo (OVA) / Ходуны (2012)[BDRip][HWP]
Оригинальное название: ギョ
Английское название: Gyo / The Fish
Русское название: Ходуны
Страна: Япония
Год выпуска / период трансляции: 2012
Жанр: ужасы, драма
Возрастное ограничение: 14+
Категория: OAV
Количество эпизодов: 1
Продолжительность: 70 мин
Студия:



Описание:
Чтобы отпраздновать окончание университета, Каори и её две подруги отправились в короткий отпуск на Окинаву. В пляжном домике дяди жениха Каори, на посетителей нападает странная ходячая рыба. Тогда ещё ничего не подозревающие туристки и не представляли, какой ужасной чередой событий обернётся для них эта встреча...

Источник рипа: BD-Rip [WhyNot]
Автор рипа\энкод: Renmei Rei
Тип видео: Без хардсаба
Контейнер: AVI
Видео: XviD (Build 64) | 720 x 404 pixels | 23,976 fps | ~1765 kbps ;

Аудио:
RUS: AC-3 | 48.0 KHz | stereo | 256 Kbps;
JAP:  AC-3 | 48.0 KHz | stereo | 256 Kbps

Субтитры: Ru - soft [SRT, SSA][ame shirou]
Перевод: промт
Озвучивание: Kasumi и Henesy

MediaInfo: - показать
Общее
Полное имя                               : R:\Video\HWP\Gyo (OVA)[BD-Rip][HWP][AnimeReactor.ru]\Gyo_OVA_[ru_jp]_[AnimeReactor.ru]_[BD-Rip_XviD_AC-3].avi
Формат                                   : AVI
Формат/Информация                        : Audio Video Interleave
Размер файла                             : 1,12 Гбайт
Продолжительность                        : 1 ч. 10 м.
Общий поток                              : 2291 Кбит/сек
Программа кодирования                    : VirtualDubModRus 1.5.10.2 (build 2542/release)
Библиотека кодирования                   : VirtualDubMod build 2542/release

Видео
Идентификатор                            : 0
Формат                                   : MPEG-4 Visual
Профиль формата                          : Advanced Simple@L5
Параметр BVOP формата                    : 2
Параметр QPel формата                    : Нет
Параметр GMC формата                     : Без точки перехода
Параметр матрицы формата                 : Default (H.263)
Идентификатор кодека                     : XVID
Идентификатор кодека/Подсказка           : XviD
Продолжительность                        : 1 ч. 10 м.
Битрейт                                  : 1765 Кбит/сек
Ширина                                   : 720 пикселей
Высота                                   : 404 пикселя
Соотношение сторон                       : 16:9
Частота кадров                           : 23,976 кадра/сек
Цветовое пространство                    : YUV
Субдискретизация насыщенности            : 4:2:0
Битовая глубина                          : 8 бит
Тип развёртки                            : Прогрессивная
Метод сжатия                             : С потерями
Бит/(Пиксели*Кадры)                      : 0.253
Размер потока                            : 885 Мбайт (77%)
Библиотека кодирования                   : XviD 64

Аудио #1
Идентификатор                            : 1
Формат                                   : AC-3
Формат/Информация                        : Audio Coding 3
Расширение режима                        : CM (complete main)
Идентификатор кодека                     : 2000
Продолжительность                        : 1 ч. 10 м.
Вид битрейта                             : Постоянный
Битрейт                                  : 256 Кбит/сек
Каналы                                   : 2 канала
Расположение каналов                     : Front: L R
Частота                                  : 48,0 КГц
Битовая глубина                          : 16 бит
Метод сжатия                             : С потерями
Размер потока                            : 128 Мбайт (11%)
Выравнивание                             : Разделение по промежуткам
Продолжительность промежутка             : 42  мс. (1,00 видеокадр)
Время предзагрузки промежутка            : 500  мс.
Заголовок                                : Russian [Kasumi и Henesy]

Аудио #2
Идентификатор                            : 2
Формат                                   : AC-3
Формат/Информация                        : Audio Coding 3
Расширение режима                        : CM (complete main)
Идентификатор кодека                     : 2000
Продолжительность                        : 1 ч. 10 м.
Вид битрейта                             : Постоянный
Битрейт                                  : 256 Кбит/сек
Каналы                                   : 2 канала
Расположение каналов                     : Front: L R
Частота                                  : 48,0 КГц
Битовая глубина                          : 16 бит
Метод сжатия                             : С потерями
Размер потока                            : 128 Мбайт (11%)
Выравнивание                             : Разделение по промежуткам
Продолжительность промежутка             : 42  мс. (1,00 видеокадр)
Время предзагрузки промежутка            : 500  мс.
Заголовок                                : Original [Japanese]


Скриншоты: - показать


Дядя Шарик
Релиз от
источник
ARRU & henesy & Kasumi & RenmeiRei & REBUILD ARRU
А вы ничего не забыли?
наверх

Последние поступления