ARRU





Denpa Onna to Seishun Otoko (OVA)
Радиосигнал от чудачки (спэшл)(2012)[BD-Rip][HWP]   Bookmark


Скачать вход / регистрация
Тема на форуме Обсудить аниме (комментариев: 86)
Обсуждение раздачи (комментариев: 1)
ОписаниеDenpa Onna to Seishun Otoko (OVA) / Радиосигнал от чудачки (спэшл)(2012)[BD-Rip][HWP]
Оригинальное название: Denpa Onna to Seishun Otoko OVA
Английское название: Electromagnetic Wave Woman and Adolescent Man
Русское название: Радиосигнал от чудачки ОВА
Страна: Япония
Год выпуска: 2012
Жанр: комедия, повседневность
Категория: OVA
Количество эпизодов: 1 эпизод
Продолжительность: 29 минут
Студия:

Режиссёр: Симбо Акиюки
Автор оригинала: Ирума Хитома

Описание:
Прямое продолжение событий ТВ сериала. По случаю победы в матче жители торгового пригорода устраивают летний фестиваль, где мы вновь встретимся с знакомыми героями. (c)

Источник рипа: BD-Rip [Mazui]
Автор рипа\энкод: Renmei Rei
Тип видео: Без хардсаба
Контейнер: AVI
Видео: XviD (Build 64) | 720 x 404 pixels | 23,976 fps | ~1500 kbps ;

Аудио:
RUS: AC-3 | 48.0 KHz | stereo | 256 Kbps;
JAP:  AC-3 | 48.0 KHz | stereo | 256 Kbps

Субтитры: Ru - soft [SRT, SSA][Spring-subs]
Перевод: Siinur
Озвучивание: Valkrist & NASTR

MediaInfo: - показать
Общее
Полное имя                               : R:\Video\HWP\Denpa Onna to Seishun Otoko (OVA)[BD-Rip][HWP][AnimeReactor.ru]\Denpa_Onna_to_Seishun_Otoko_-_OVA_[ru_jp]_[MCA_&_Animereactor]_[BD-Rip_XviD_AC-3].avi
Формат                                   : AVI
Формат/Информация                        : Audio Video Interleave
Размер файла                             : 431 Мбайт
Продолжительность                        : 29 м.
Общий поток                              : 2055 Кбит/сек
Программа кодирования                    : VirtualDubModRus 1.5.10.2 (build 2542/release)
Библиотека кодирования                   : VirtualDubMod build 2542/release

Видео
Идентификатор                            : 0
Формат                                   : MPEG-4 Visual
Профиль формата                          : Advanced Simple@L5
Параметр BVOP формата                    : 2
Параметр QPel формата                    : Нет
Параметр GMC формата                     : Без точки перехода
Параметр матрицы формата                 : Default (H.263)
Идентификатор кодека                     : XVID
Идентификатор кодека/Подсказка           : XviD
Продолжительность                        : 29 м.
Битрейт                                  : 1528 Кбит/сек
Ширина                                   : 720 пикселей
Высота                                   : 404 пикселя
Соотношение сторон                       : 16:9
Частота кадров                           : 23,976 кадра/сек
Цветовое пространство                    : YUV
Субдискретизация насыщенности            : 4:2:0
Битовая глубина                          : 8 бит
Тип развёртки                            : Прогрессивная
Метод сжатия                             : С потерями
Бит/(Пиксели*Кадры)                      : 0.219
Размер потока                            : 320 Мбайт (74%)
Библиотека кодирования                   : XviD 64

Аудио #1
Идентификатор                            : 1
Формат                                   : AC-3
Формат/Информация                        : Audio Coding 3
Расширение режима                        : CM (complete main)
Идентификатор кодека                     : 2000
Продолжительность                        : 29 м.
Вид битрейта                             : Постоянный
Битрейт                                  : 256 Кбит/сек
Каналы                                   : 2 канала
Расположение каналов                     : Front: L R
Частота                                  : 48,0 КГц
Битовая глубина                          : 16 бит
Метод сжатия                             : С потерями
Размер потока                            : 53,7 Мбайт (12%)
Выравнивание                             : Разделение по промежуткам
Продолжительность промежутка             : 42  мс. (1,00 видеокадр)
Время предзагрузки промежутка            : 500  мс.
Заголовок                                : Russian [Valkrist & NASTR]

Аудио #2
Идентификатор                            : 2
Формат                                   : AC-3
Формат/Информация                        : Audio Coding 3
Расширение режима                        : CM (complete main)
Идентификатор кодека                     : 2000
Продолжительность                        : 29 м.
Вид битрейта                             : Постоянный
Битрейт                                  : 256 Кбит/сек
Каналы                                   : 2 канала
Расположение каналов                     : Front: L R
Частота                                  : 48,0 КГц
Битовая глубина                          : 16 бит
Метод сжатия                             : С потерями
Размер потока                            : 53,7 Мбайт (12%)
Выравнивание                             : Разделение по промежуткам
Продолжительность промежутка             : 42  мс. (1,00 видеокадр)
Время предзагрузки промежутка            : 500  мс.
Заголовок                                : Japanese [Original]


Скриншоты: - показать


Дядя Шарик
Релиз от
источник
ARRU & Moscow City Animegroup - MCA & RenmeiRei & REBUILD ARRU
А вы ничего не забыли?
наверх

Последние поступления