ARRU





Katanagatari
История мечей (2010)[01-12 из 12][BD-Rip][HWP]   Bookmark


Скачать вход / регистрация
Тема на форуме Обсудить аниме (комментариев: 73)
Обсуждение раздачи (комментариев: 143)
Смотреть онлайн
ОписаниеKatanagatari / История мечей (2010)[01-12 из 12][BD-Rip][HWP]
Оригинальное название: Katanagatari
Английское название: Sword Stories
Русское название: Истории мечей
Страна: Япония
Год выпуска / период трансляции: c 26.01.2010 по ??.12.2010
Жанр: приключения, боевые искусства
Возрастное ограничение: нет
Категория: TV
Количество эпизодов: 12 эп.
Продолжительность: 50 мин.
Студия:

Режиссёр: Мотонага Кэйтаро
Сценарий: Уэдзу Макото
Автор оригинала: Нисио Исин
Композитор: Ивасаки Таку
Описание:

В альтернативной средневековой.
Японии подошла к концу эпоха битв, и настала эра Овари – твердой власти сёгуната. Последнее крупное восстание князя Хиды было жестоко подавлено, ведущую роль в этом сыграл Муцуэ Ясури, естой глава Кёто-рю – уникальной школы рукопашного боя. Сёгун не забыл заслуг мастера и, как положено, вскоре после упрочения своей власти в знак благодарности сослал того вместе с семьей на необитаемый остров. Прошло 20 лет, и в стране наступило спокойствие…

Спокойно и на далеком острове. Похоронив отца, юный Ситика Ясури, седьмой мастер Кёто-рю, неустанно тренируется, а его старшая сестра Нанами ведет нехитрое хозяйство. Так бы они и жили, если бы не гости с материка...
© Hollow, World Art

Названия эпизодов:
01. Kanna, the Cutting Sword
02. Namakura, the Decapitation Sword
03. Tsurugi, the Sword of Thousand
04. Hari, the Slender Sword
05. Yoroi, the Rebel Sword
06. Kanazuchi, the Twin Swords
07. Bita, the Evil Sword
08. Kanzashi, the Sword of Precision
09. Nokogiri, the Sword of Kings
10. Hakari, the Sword of Truth
11. Mekki, the Poison Sword
12. Juu, the Flame Sword


Источник рипа: BD-Rip [Mazui]
Автор рипа\энкод: Renmei Rei
Тип видео: Без хардсаба
Контейнер: AVI
Видео: XviD (Build 64) | 720 x 404 pixels | 23,976 fps | ~1600 - 1700 kbps ;

Аудио:
RUS: AC-3 | 48.0 KHz | stereo | 256 Kbps;
JAP:  AC-3 | 48.0 KHz | stereo | 256 Kbps

Субтитры: Ru - soft [SRT, SSA][Vaily]
Перевод: Vaily
Работа со звуком: Nikanor47
Озвучивание:
Dajana - Тогамэ, Рассказчик
Valkrist - Ясури Шичика
tonyko - Манива Хоу, Сото Эмонзаемон, Хигаке Ринне (обличие для Тогаме)
Vaily - Ясури Нанами, Цуруга Мейсай
Sagi - Принцесса Хитей
Polka - Хигаке Ринне (обличие для Шичики), Манива Пенги
Yuuhi - Кигучи Занки


MediaInfo: - показать
Общее
Полное имя                               : R:\Video\HWP\Katanagatari (TV)[1-12 of 12][BD-Rip][HWP][AnimeReactor.ru]\Katanagatari_TV_[01_of_12]_[ru_jp]_[ARRU_Workshop]_[BDRip_XviD_AC-3].avi
Формат                                   : AVI
Формат/Информация                        : Audio Video Interleave
Размер файла                             : 765 Мбайт
Продолжительность                        : 49 м.
Общий поток                              : 2145 Кбит/сек
Программа кодирования                    : VirtualDubModRus 1.5.10.2 (build 2542/release)
Библиотека кодирования                   : VirtualDubMod build 2542/release

Видео
Идентификатор                            : 0
Формат                                   : MPEG-4 Visual
Профиль формата                          : Advanced Simple@L5
Параметр BVOP формата                    : 2
Параметр QPel формата                    : Нет
Параметр GMC формата                     : Без точки перехода
Параметр матрицы формата                 : Default (H.263)
Идентификатор кодека                     : XVID
Идентификатор кодека/Подсказка           : XviD
Продолжительность                        : 49 м.
Битрейт                                  : 1619 Кбит/сек
Ширина                                   : 720 пикселей
Высота                                   : 404 пикселя
Соотношение сторон                       : 16:9
Частота кадров                           : 23,976 кадра/сек
Цветовое пространство                    : YUV
Субдискретизация насыщенности            : 4:2:0
Битовая глубина                          : 8 бит
Тип развёртки                            : Прогрессивная
Метод сжатия                             : С потерями
Бит/(Пиксели*Кадры)                      : 0.232
Размер потока                            : 577 Мбайт (75%)
Библиотека кодирования                   : XviD 64

Аудио #1
Идентификатор                            : 1
Формат                                   : AC-3
Формат/Информация                        : Audio Coding 3
Расширение режима                        : CM (complete main)
Идентификатор кодека                     : 2000
Продолжительность                        : 49 м.
Вид битрейта                             : Постоянный
Битрейт                                  : 256 Кбит/сек
Каналы                                   : 2 канала
Расположение каналов                     : Front: L R
Частота                                  : 48,0 КГц
Битовая глубина                          : 16 бит
Метод сжатия                             : С потерями
Размер потока                            : 91,2 Мбайт (12%)
Выравнивание                             : Разделение по промежуткам
Продолжительность промежутка             : 42  мс. (1,00 видеокадр)
Время предзагрузки промежутка            : 500  мс.
Заголовок                                : Russian [ARRU Workshop]

Аудио #2
Идентификатор                            : 2
Формат                                   : AC-3
Формат/Информация                        : Audio Coding 3
Расширение режима                        : CM (complete main)
Идентификатор кодека                     : 2000
Продолжительность                        : 49 м.
Вид битрейта                             : Постоянный
Битрейт                                  : 256 Кбит/сек
Каналы                                   : 2 канала
Расположение каналов                     : Front: L R
Частота                                  : 48,0 КГц
Битовая глубина                          : 16 бит
Метод сжатия                             : С потерями
Размер потока                            : 91,2 Мбайт (12%)
Выравнивание                             : Разделение по промежуткам
Продолжительность промежутка             : 42  мс. (1,00 видеокадр)
Время предзагрузки промежутка            : 500  мс.
Заголовок                                : Japanese [Original]


Скриншоты: - показать




Комментарии:
Премьерный проект замечательного объединения людей под названием Мастерская АРРУ.
Дядя Шарик
Релиз от
источник
Мастерская АРРУ RenmeiRei REBUILD ARRU
А вы ничего не забыли?
наверх

Последние поступления