ARRU





Fullmetal Alchemist - Conqueror of Shamballa
Цельнометаллический Алхимик - Завоеватель Шамбалы (фильм первый)(2005)[BD-Rip][HWP]   Bookmark


Скачать
Сгенерировать линк на торрент файл
Полученный линк проживёт 1 минуту.
 магнет линк | TxT и Zip линки на безрейтинговом трекере
Тема на форуме Обсуждение раздачи (комментариев: 6)
ОписаниеFullmetal Alchemist - Conqueror of Shamballa / Цельнометаллический Алхимик - Завоеватель Шамбалы (фильм первый)(2005)[BD-Rip][HWP]
Цельнометаллический Алхимик: Фильм Первый - Завоеватель Шамбалы [2005]
Fullmetal Alchemist: The Movie - Conqueror of Shamballa
Gekijouban Hagane no Renkinjutsushi - Shanbara wo Yuku Mono
Gekijouban Hagane no Renkinjutsushi: Shambala o Yuku Mono
Fullmetal Alchemist The Movie Conqueror of Shamballa
Fullmetal Alchemist: The Conqueror of Shamballa

Производство: Япония
Жанр: приключения, драма, история, фэнтези
Тип: полнометражный фильм, 105 мин.
Премьера: 23.07.2005
Студия:

Режиссёр: Мидзусима Сэйдзи
Снято по манге: Fullmetal Alchemist
Автор оригинала: Аракава Хирому

Описание:
Фильм представляет собой прямое продолжение сериала – и ещё больше отступает от манги-оригинала. Здесь сохраняется драматизм «Цельнометаллического Алхимика», а сюжет по-прежнему связан с проблемой выбора и платы за этот выбор. Но если в сериале браться Эльрики искали философский камень, дабы исправить совершённые ошибки, то теперь поисками занят только Эдвард, разлучённый с младшим братом.

Альфонс вернул себе тело, но утратил память. Эда, прошедшего через Врата, выбросило в параллельной реальности, похожей на нашу. Это Германия, двадцатые годы ХХ-го века, и национал-социалистическая партия набирает силу. Алхимия бесполезна, поэтому Эдварду приходится использовать протезы. Его приютил молодой изобретатель, очень похожий на повзрослевшего Ала. Это не единственный двойник – Эду встречаются многие «знакомые» из мира «Цельнометаллического Алхимика», живущие схожими и вместе с тем другими судьбами.

Эдвард пытается найти путь назад, домой, и пытается вновь открыть Врата. А в это время «алхимики» из общества Туле хотят помочь Гитлеру захватить власть с помощью силы из другого мира – таинственной Шамбалы... © Расселл Д. Джонс

Источник рипа: BD-Rip [Yousei-raws]
Автор рипа: Renmei Rei
Тип видео: Без хардсаба
Контейнер: avi
Видео: XviD (Build 64) | 720 x 404 pixels | 23,976 fps | ~1600 kbps ;

Аудио:
RUS1: AC-3 | 48000Hz | 448 Kbps | 6 chanels - [Lupin, Sahawk, Say, Silv, Jam]
RUS2: AC-3 | 44100Hz | 192 Kbps | 2ch - Дмитрий Толмачёв
JAP:  AC-3 | 48000Hz | 448 Kbps | 6 chanels - Original

Субтитры: Ru - soft [SRT, SSA]
Перевод: Юкос, Фальгар, Incola

MediaInfo: - показать
Общее
Полное имя                               : R:\Video\HWP\Fullmetal Alchemist - Conqueror of Shamballa (movie)[BD-Rip][HWP][AnimeReactor.ru]\Fullmetal Alchemist - Conqueror of Shamballa (movie)[BD-Rip XviD AC-3][AnimeReactor.ru].avi
Формат                                   : AVI
Формат/Информация                        : Audio Video Interleave
Размер файла                             : 1,99 Гбайт
Продолжительность                        : 1 ч. 44 м.
Общий поток                              : 2713 Кбит/сек
Программа кодирования                    : VirtualDubModRus 1.5.10.2 (build 2542/release)
Библиотека кодирования                   : VirtualDubMod build 2542/release

Видео
Идентификатор                            : 0
Формат                                   : MPEG-4 Visual
Профиль формата                          : Advanced Simple@L5
Параметр BVOP формата                    : 2
Параметр QPel формата                    : Нет
Параметр GMC формата                     : Без точки перехода
Параметр матрицы формата                 : Default (H.263)
Идентификатор кодека                     : XVID
Идентификатор кодека/Подсказка           : XviD
Продолжительность                        : 1 ч. 44 м.
Битрейт                                  : 1606 Кбит/сек
Ширина                                   : 720 пикселей
Высота                                   : 404 пикселя
Соотношение сторон                       : 16:9
Частота кадров                           : 23,976 кадра/сек
Цветовое пространство                    : YUV
Субдискретизация насыщенности            : 4:2:0
Битовая глубина                          : 8 бит
Тип развёртки                            : Прогрессивная
Метод сжатия                             : С потерями
Бит/(Пиксели*Кадры)                      : 0.230
Размер потока                            : 1,18 Гбайт (59%)
Библиотека кодирования                   : XviD 64

Аудио #1
Идентификатор                            : 1
Формат                                   : AC-3
Формат/Информация                        : Audio Coding 3
Расширение режима                        : CM (complete main)
Идентификатор кодека                     : 2000
Продолжительность                        : 1 ч. 44 м.
Вид битрейта                             : Постоянный
Битрейт                                  : 448 Кбит/сек
Каналы                                   : 6 каналов
Расположение каналов                     : Front: L C R, Side: L R, LFE
Частота                                  : 48,0 КГц
Битовая глубина                          : 16 бит
Метод сжатия                             : С потерями
Размер потока                            : 336 Мбайт (17%)
Выравнивание                             : Разделение по промежуткам
Продолжительность промежутка             : 42  мс. (1,00 видеокадр)
Время предзагрузки промежутка            : 500  мс.
Заголовок                                : Russian [Lupin, Sahawk, Say, Silv, Jam]

Аудио #2
Идентификатор                            : 2
Формат                                   : AC-3
Формат/Информация                        : Audio Coding 3
Расширение режима                        : CM (complete main)
Идентификатор кодека                     : 2000
Продолжительность                        : 1 ч. 44 м.
Вид битрейта                             : Постоянный
Битрейт                                  : 192 Кбит/сек
Каналы                                   : 2 канала
Расположение каналов                     : Front: L R
Частота                                  : 48,0 КГц
Битовая глубина                          : 16 бит
Метод сжатия                             : С потерями
Размер потока                            : 144 Мбайт (7%)
Выравнивание                             : Разделение по промежуткам
Продолжительность промежутка             : 42  мс. (1,00 видеокадр)
Время предзагрузки промежутка            : 500  мс.
Заголовок                                : Russian [Дмитрий Толмачёв]

Аудио #3
Идентификатор                            : 3
Формат                                   : AC-3
Формат/Информация                        : Audio Coding 3
Расширение режима                        : CM (complete main)
Идентификатор кодека                     : 2000
Продолжительность                        : 1 ч. 44 м.
Вид битрейта                             : Постоянный
Битрейт                                  : 448 Кбит/сек
Каналы                                   : 6 каналов
Расположение каналов                     : Front: L C R, Side: L R, LFE
Частота                                  : 48,0 КГц
Битовая глубина                          : 16 бит
Метод сжатия                             : С потерями
Размер потока                            : 336 Мбайт (17%)
Выравнивание                             : Разделение по промежуткам
Продолжительность промежутка             : 42  мс. (1,00 видеокадр)
Время предзагрузки промежутка            : 500  мс.
Заголовок                                : Japanese [Original]


Скриншоты: - показать




Дядя Шарик
Релиз от
источник
ARRU & RenmeiRei   &   AnimeGroup, Animedia
наверх

Последние поступления