ARRU





Tailenders
Севшие на хвост (фильм)(2009)[BD-Rip][HWP]   Bookmark


Скачать
Сгенерировать линк на торрент файл
Полученный линк проживёт 1 минуту.
 магнет линк | TxT и Zip линки на безрейтинговом трекере
ОписаниеTailenders | Севшие на хвост (фильм)(2009)[BD-Rip][HWP]
Английское название: Tailenders Movie
Русское название: Идущие в хвосте!
Страна: Япония
Год выпуска: 2009
Жанр: гонки, приключения
Продолжительность: 27 m.
Категория: Film
Студия: Picograph


Описание:
Авария полностью меняет судьбу многообещающего гонщика Широ - он выжил, но его сердце нет. Девушка-механик, Микагура Томое, меняет отказавшее сердце на мотор машины, именуемый «Томое драйв». Теперь он становится сердцем машины, и вместе с Томое они отправляются на гонки в граунд Индии где цель Микагуры вовсе не те гонки где участвуют простые гонщики...

Источник рипа: BD-Rip
Автор рипа\энкод: Renmei Rei
Тип видео: Без хардсаба
Контейнер: AVI
Видео: XviD (Build 64) | 720 x 404 | 23,976 fps | ~1600 kbps ;

Аудио:
1. RU - MVO: AC-3 | 48.0 KHz | stereo | 448 Kbps;
2. JP: AC-3 | 48.0 KHz | stereo | 488 Kbps

Субтитры: Ru - soft [SRT]
Перевод: Nesitach, Stan WarHammer
Озвучивание: E-Rotic, Korin, Near, AinRIT, Мулентий
Тайминг: Мулентий

MediaInfo: - показать
Общее
Полное имя                               : R:\Video\HWP\Tailenders (movie)[BD-Rip][HWP]\Tailenders_Movie_[ru_jp]_[AniFilm_&_AnimeReactor]_[BD-Rip_XviD_AC-3].avi
Формат                                   : AVI
Формат/Информация                        : Audio Video Interleave
Размер файла                             : 496 Мбайт
Продолжительность                        : 27 м.
Общий поток                              : 2512 Кбит/сек
Программа кодирования                    : VirtualDubModRus 1.5.10.2 (build 2542/release)
Библиотека кодирования                   : VirtualDubMod build 2542/release

Видео
Идентификатор                            : 0
Формат                                   : MPEG-4 Visual
Профиль формата                          : Advanced Simple@L5
Параметр BVOP формата                    : 2
Параметр QPel формата                    : Нет
Параметр GMC формата                     : Без точки перехода
Параметр матрицы формата                 : Default (H.263)
Идентификатор кодека                     : XVID
Идентификатор кодека/Подсказка           : XviD
Продолжительность                        : 27 м.
Битрейт                                  : 1602 Кбит/сек
Ширина                                   : 720 пикселей
Высота                                   : 404 пикселя
Соотношение сторон                       : 16:9
Частота кадров                           : 23,976 кадра/сек
Цветовое пространство                    : YUV
Субдискретизация насыщенности            : 4:2:0
Битовая глубина                          : 8 бит
Тип развёртки                            : Прогрессивная
Метод сжатия                             : С потерями
Бит/(Пиксели*Кадры)                      : 0.230
Размер потока                            : 316 Мбайт (64%)
Библиотека кодирования                   : XviD 64

Аудио #1
Идентификатор                            : 1
Формат                                   : AC-3
Формат/Информация                        : Audio Coding 3
Расширение режима                        : CM (complete main)
Идентификатор кодека                     : 2000
Продолжительность                        : 27 м.
Вид битрейта                             : Постоянный
Битрейт                                  : 448 Кбит/сек
Каналы                                   : 6 каналов
Расположение каналов                     : Front: L C R, Side: L R, LFE
Частота                                  : 48,0 КГц
Битовая глубина                          : 16 бит
Метод сжатия                             : С потерями
Размер потока                            : 88,5 Мбайт (18%)
Выравнивание                             : Разделение по промежуткам
Продолжительность промежутка             : 42  мс. (1,00 видеокадр)
Время предзагрузки промежутка            : 500  мс.
Заголовок                                : Russian [E-Rotic, Korin, Near, AinRIT, Мулентий]

Аудио #2
Идентификатор                            : 2
Формат                                   : AC-3
Формат/Информация                        : Audio Coding 3
Расширение режима                        : CM (complete main)
Идентификатор кодека                     : 2000
Продолжительность                        : 27 м.
Вид битрейта                             : Постоянный
Битрейт                                  : 448 Кбит/сек
Каналы                                   : 6 каналов
Расположение каналов                     : Front: L C R, Side: L R, LFE
Частота                                  : 48,0 КГц
Битовая глубина                          : 16 бит
Метод сжатия                             : С потерями
Размер потока                            : 88,5 Мбайт (18%)
Выравнивание                             : Разделение по промежуткам
Продолжительность промежутка             : 42  мс. (1,00 видеокадр)
Время предзагрузки промежутка            : 500  мс.
Заголовок                                : Japanese [Original]


Скриншоты: - показать




Коментарий: Фикс. Заменено название субтитров. Удален лишний.
Дядя Шарик
Релиз от
источник
ARRU & LNS & RenmeiRei & REBUILD ARRU   &   AniFilm
наверх

Последние поступления