ARRU





Mahou Shoujo Lyrical Nanoha The Movie 1st
Лиричная волшебница Наноха (2010)(фильм первый)[BD-Rip][HWP]   Bookmark


Скачать вход / регистрация
Тема на форуме Обсудить фильм (комментариев: 40)
Обсуждение раздачи (комментариев: 1)
ОписаниеMahou Shoujo Lyrical Nanoha The Movie 1st | Лиричная волшебница Наноха (2010)(фильм первый)[BD-Rip][HWP]
Оригинальное название: Mahou Shoujo Lyrical Nanoha The Movie 1st
Английское название: Magical Girl Lyrical Nanoha The Movie 1st
Русское название: Лиричная волшебница Наноха (фильм первый)
Страна: Япония
Год выпуска: 2010
Жанр: приключения, махо-сёдзё
Категория: Movie
Количество эпизодов: 1
Продолжительность: 130 минут
Студия:

Режиссёр: Кусакава Кэйдзё
Автор оригинала: Цудзуки Маки

Описание:
Что делать, если твой город, весь твой мир внезапно затянуло в орбиту амбиций, интриг и политических игр неведомых, но явно высших сил? Для 9-летней Нанохи Такамати из тихого городка Уминари ответ ясен: надо драться, а что дальше – бой покажет! Симпатичная рыжая девочка, выросшая в семье мастеров меча и кулинарии, вовсе не растерялась, когда на голову в прямом смысле слова стали сыпаться артефакты забытых миров, могущественные маги и космические миротворцы. Дочь самураев быстро сориентировалась и нашла свое место в новом раскладе, попутно подружившись и с союзниками, и с соперниками. Ибо лейтмотив сюжета очень прост – с Нанохой лучше дружить!

Фильм не просто излагает события первого сезона через призму современной графики, но и открывает новые грани в прошлом и настоящем полюбившихся героев. Земные пейзажи и магические битвы, фантастические замки и звездные корабли – только сейчас фантазия авторов вселенной Нанохи получила достойное воплощение на большом экране!

© Hollow

Источник рипа: BD-Rip
Автор рипа\энкод: Renmei Rei
Тип видео: Без хардсаба
Контейнер: AVI
Видео: XviD (Build 64) | 720 x 404 | 23,976 fps | ~1600 kbps ;

Аудио:
1. RU - VO: AC-3 | 48.0 KHz | stereo | 320 Kbps;
2. JP: AC-3 | 48.0 KHz | stereo | 448 Kbps

Субтитры: Ru - soft [SRT, SSA][Hollow & Obelikx]
Перевод: Hollow & Obelikx
Тайм-код/Оформление: Obelikx
Переводчик/Перевод песен: Hollow
Озвучивание: Persona99

MediaInfo: - показать
Общее
Полное имя                               : R:\Video\HWP\Mahou Shoujo Lyrical Nanoha (The Movie 1st)[BD-Rip][HWP]\Magical_Girl_Lyrical_Nanoha_The_Movie_1st_[ru_jp]_[Get_Smart_&_Animereactor_Ru]_[BD-Rip_XviD_AC-3].avi
Формат                                   : AVI
Формат/Информация                        : Audio Video Interleave
Профиль формата                          : OpenDML
Размер файла                             : 2,17 Гбайт
Продолжительность                        : 2 ч. 10 м.
Общий поток                              : 2389 Кбит/сек
Программа кодирования                    : VirtualDubModRus 1.5.10.2 (build 2542/release)
Библиотека кодирования                   : VirtualDubMod build 2542/release

Видео
Идентификатор                            : 0
Формат                                   : MPEG-4 Visual
Профиль формата                          : Advanced Simple@L5
Параметр BVOP формата                    : 2
Параметр QPel формата                    : Нет
Параметр GMC формата                     : Без точки перехода
Параметр матрицы формата                 : Default (H.263)
Идентификатор кодека                     : XVID
Идентификатор кодека/Подсказка           : XviD
Продолжительность                        : 2 ч. 10 м.
Битрейт                                  : 1603 Кбит/сек
Ширина                                   : 720 пикселей
Высота                                   : 404 пикселя
Соотношение сторон                       : 16:9
Частота кадров                           : 23,976 кадра/сек
Цветовое пространство                    : YUV
Субдискретизация насыщенности            : 4:2:0
Битовая глубина                          : 8 бит
Тип развёртки                            : Прогрессивная
Метод сжатия                             : С потерями
Бит/(Пиксели*Кадры)                      : 0.230
Размер потока                            : 1,46 Гбайт (67%)
Библиотека кодирования                   : XviD 64

Аудио #1
Идентификатор                            : 1
Формат                                   : AC-3
Формат/Информация                        : Audio Coding 3
Расширение режима                        : CM (complete main)
Идентификатор кодека                     : 2000
Продолжительность                        : 2 ч. 10 м.
Вид битрейта                             : Постоянный
Битрейт                                  : 320 Кбит/сек
Каналы                                   : 2 канала
Расположение каналов                     : Front: L R
Частота                                  : 48,0 КГц
Битовая глубина                          : 16 бит
Метод сжатия                             : С потерями
Размер потока                            : 298 Мбайт (13%)
Выравнивание                             : Разделение по промежуткам
Продолжительность промежутка             : 42  мс. (1,00 видеокадр)
Время предзагрузки промежутка            : 500  мс.
Заголовок                                : Russian [Persona 99]

Аудио #2
Идентификатор                            : 2
Формат                                   : AC-3
Формат/Информация                        : Audio Coding 3
Расширение режима                        : CM (complete main)
Идентификатор кодека                     : 2000
Продолжительность                        : 2 ч. 10 м.
Вид битрейта                             : Постоянный
Битрейт                                  : 448 Кбит/сек
Каналы                                   : 6 каналов
Расположение каналов                     : Front: L C R, Side: L R, LFE
Частота                                  : 48,0 КГц
Битовая глубина                          : 16 бит
Метод сжатия                             : С потерями
Размер потока                            : 417 Мбайт (19%)
Выравнивание                             : Разделение по промежуткам
Продолжительность промежутка             : 42  мс. (1,00 видеокадр)
Время предзагрузки промежутка            : 500  мс.
Заголовок                                : Japanese [Original]

Скриншоты: - показать


Дядя Шарик
Релиз от
источник
ARRU & Get Smart & RenmeiRei & REBUILD ARRU
А вы ничего не забыли?
наверх

Последние поступления