ARRU





Kyou Kara Maou! R
Отныне Мао, король демонов! (OVA)(2007)[1-5 из 5][DVD-Rip][HWP]   Bookmark


Скачать вход / регистрация
Тема на форуме Обсудить аниме (комментариев: 108)
Обсуждение раздачи (комментариев: 217)
ОписаниеKyou Kara Maou! R | Отныне Мао, король демонов! (OVA)(2007)[1-5 из 5][DVD-Rip][HWP]
Оригинальное название: 今日から(マ王!R
Английское название: Kyo Kara Maoh! R
Русское название: Отныне Мао, король демонов!
Страна: Япония
Год выпуска / период трансляции: c 26.10.2007 по 27.02.2008
Жанр: приключения, комедия, фэнтези, сёдзё
Категория:  TV
Количество эпизодов: 5
Продолжительность: 30 мин.
Студия:

Режиссёр: Нисимура Дзюндзи
Автор оригинала: Такабаяси Томо

Описание:
Как и положено в сёнен-сериалах, в “Kyou Kara Maou” речь идет о мальчике-подростке Шибуя Юри, который почти всю свою жизнь страдал от имени, данного ему таинственным незнакомцем, встреченным его матерью прямо перед своим рождением. От той встречи прошло 15 лет, и вот Юри, случайно ввязавшись в разборки, оказывается оригинальным способом перемещенным в другой мир. В этом новом для него мире его сразу опознают как мазоку и осыпают камнями, потому что в этом мире мазоку и люди ведут частые войны, пытаясь уничтожить друг друга.
© Гость,  www.world-art.ru

Названия эпизодов:
01. Small Shimaron's Young King (First Part)
02. For the Emperor's Approval
03. The Dry Winds
04. Maiden of Love
05. Small Shimaron's Young King (Second Part)


Источник рипа: DVD-Rip
Автор рипа\энкод: Renmei Rei
Тип видео: Без хардсаба
Контейнер: AVI
Видео: XviD (Build 64) | 720 x 404 | 23,976 fps | ~1600 kbps ;

Аудио:
1. RU - VO: AC-3 | 48.0 KHz | stereo | 192 Kbps;
2. JP: AC-3 | 48.0 KHz | stereo | 192 Kbps

Субтитры: Ru - soft [SRT]
Перевод:
серии 1-2  Kitsunе, NGE
серии 3-5 YARilo
Озвучивание: Persona99

MediaInfo: - показать
Общее
Полное имя                               : R:\Video\HWP\Kyou Kara Maou! R (OVA)[1-5 of 5][DVDRip][HWP]\Kyou_Kara_Maou!_R_OVA_[01_of_05]_[ru_jp]_[GetSmart_&_AnimeReactor.RU]_[DVDRip_XviD_AC3].avi
Формат                                   : AVI
Формат/Информация                        : Audio Video Interleave
Размер файла                             : 364 Мбайт
Продолжительность                        : 25 м.
Общий поток                              : 1999 Кбит/сек
Программа кодирования                    : VirtualDubModRus 1.5.10.2 (build 2542/release)
Библиотека кодирования                   : VirtualDubMod build 2542/release

Видео
Идентификатор                            : 0
Формат                                   : MPEG-4 Visual
Профиль формата                          : Advanced Simple@L5
Параметр BVOP формата                    : 2
Параметр QPel формата                    : Нет
Параметр GMC формата                     : Без точки перехода
Параметр матрицы формата                 : Default (H.263)
Идентификатор кодека                     : XVID
Идентификатор кодека/Подсказка           : XviD
Продолжительность                        : 25 м.
Битрейт                                  : 1608 Кбит/сек
Ширина                                   : 720 пикселей
Высота                                   : 404 пикселя
Соотношение сторон                       : 16:9
Частота кадров                           : 23,976 кадра/сек
Цветовое пространство                    : YUV
Субдискретизация насыщенности            : 4:2:0
Битовая глубина                          : 8 бит
Тип развёртки                            : Прогрессивная
Метод сжатия                             : С потерями
Бит/(Пиксели*Кадры)                      : 0.231
Размер потока                            : 293 Мбайт (80%)
Библиотека кодирования                   : XviD 64

Аудио #1
Идентификатор                            : 1
Формат                                   : AC-3
Формат/Информация                        : Audio Coding 3
Расширение режима                        : CM (complete main)
Идентификатор кодека                     : 2000
Продолжительность                        : 25 м.
Вид битрейта                             : Постоянный
Битрейт                                  : 192 Кбит/сек
Каналы                                   : 2 канала
Расположение каналов                     : Front: L R
Частота                                  : 48,0 КГц
Битовая глубина                          : 16 бит
Метод сжатия                             : С потерями
Размер потока                            : 34,3 Мбайт (9%)
Выравнивание                             : Разделение по промежуткам
Продолжительность промежутка             : 42  мс. (1,02 видеокадр)
Время предзагрузки промежутка            : 500  мс.
Заголовок                                : Russian [Persona 99]

Аудио #2
Идентификатор                            : 2
Формат                                   : AC-3
Формат/Информация                        : Audio Coding 3
Расширение режима                        : CM (complete main)
Идентификатор кодека                     : 2000
Продолжительность                        : 25 м.
Вид битрейта                             : Постоянный
Битрейт                                  : 192 Кбит/сек
Каналы                                   : 2 канала
Расположение каналов                     : Front: L R
Частота                                  : 48,0 КГц
Битовая глубина                          : 16 бит
Метод сжатия                             : С потерями
Размер потока                            : 34,3 Мбайт (9%)
Выравнивание                             : Разделение по промежуткам
Продолжительность промежутка             : 42  мс. (1,02 видеокадр)
Время предзагрузки промежутка            : 500  мс.
Заголовок                                : Japanese [Original]

Скриншоты: - показать


Дядя Шарик
Релиз от
источник
ARRU & Get Smart & RenmeiRei & REBUILD ARRU
А вы ничего не забыли?
наверх

Последние поступления