ARRU





Katte ni Kaizou OVA
Киберэгоист Кайдзо (2011)(OVA)[1-6 из 6][BDRip][HWP]   Bookmark


Скачать вход / регистрация
Тема на форуме Обсудить аниме (комментариев: 12)
Обсуждение раздачи (комментариев: 18)
ОписаниеKatte ni Kaizou OVA | Киберэгоист Кайдзо (2011)(OVA)[1-6 из 6][BDRip][HWP]
Оригинальное название: Katte ni Kaizou / かってに改蔵
Русское название: Киберэгоист Кайдзо
Страна: Япония
Год выпуска: 2011
Жанр: комедия, пародия, школа
Возрастное ограничение: +14
Категория: OAV
Количество эпизодов: (6 эп.), 25 мин.
Студия:

Режиссёр: Симбо Акиюки
Автор оригинала: Кумэта Кодзи
Снято по манге: Katte ni Kaizou

Описание:
Это история о эксцентричном, безумном юноше по имени Катсу Кайзо, который имеет уникальный взгляд на мир вокруг себя. Он когда-то был вундеркиндом, но в возрасте 7 лет, его друг детства Уми ударила его ножкой от тренажера. Катсу получил травмы головы и его личность после этого случая изменилась, он стал питать огромный интерес к различным странным или "оккультным" вещам (НЛО, пирамиды, призраки), он начал верить легко во что угодно, независимо от того, как это нелепо.

Названия эпизодов:
01. а) Поэт что ли? б) Не остановить с разгона?! в) Школьные плавки, часть 1
02. а) Школьные плавки, часть 2  б) Франция - это где!? в) Князь Тьмы от кутюр!?
03. а) Что делать с историей любви? б) Его семилетие в) Протянешь хоть день на пределе?
04. а) Протянешь хоть день на пределе? Ч.2 б) У некоторых людей напрочь отсутствует чувство такта в) Женщина с запада
05. а) Мир невинных забав б) Прощай, Ямада-сан в) В каком-то смысле хочу стать моллюском
06. а) Добавить тут больше нечего б) Недоцирк в) В наше время даже пупки не оголяют


Источник рипа: BD-Rip [Yousei-raws]
Автор рипа\энкод: Renmei Rei
Тип видео: Без хардсаба
Контейнер: AVI
Видео: XviD (Build 64) | 720 x 404 | 23,976 fps | ~1600 kbps ;

Аудио:
1. RU - VO: mp3 | 48.0 KHz | stereo | 192 Kbps;
2. JP: AC-3 | 48.0 KHz | stereo | 256 Kbps

Субтитры: Ru - soft [SRT, SSA][Dreamers Team]
Перевод: Amarillis, Seymour
Озвучивание: Vulpes Vulpes
Оформление обложки: Ezildin

MediaInfo: - показать
Общее
Полное имя                               : D:\Katte ni Kaizou (OVA)[1-6 of 6][BDRip][HWP]\Katte_ni_Kaizou_OVA_[1_of_6]_[ru_jp]_[Vulpes_Vulpes_&_AnimeReactor_Ru].avi
Формат                                   : AVI
Формат/Информация                        : Audio Video Interleave
Размер файла                             : 352 Мбайт
Продолжительность                        : 23 м.
Общий поток                              : 2075 Кбит/сек
Программа кодирования                    : VirtualDubModRus 1.5.10.2 (build 2542/release)
Библиотека кодирования                   : VirtualDubMod build 2542/release

Видео
Идентификатор                            : 0
Формат                                   : MPEG-4 Visual
Профиль формата                          : Advanced Simple@L5
Параметр BVOP формата                    : 2
Параметр QPel формата                    : Нет
Параметр GMC формата                     : Без точки перехода
Параметр матрицы формата                 : Default (H.263)
Идентификатор кодека                     : XVID
Идентификатор кодека/Подсказка           : XviD
Продолжительность                        : 23 м.
Битрейт                                  : 1613 Кбит/сек
Ширина                                   : 720 пикселей
Высота                                   : 404 пикселя
Соотношение сторон                       : 16:9
Частота кадров                           : 23,976 кадра/сек
Цветовое пространство                    : YUV
Субдискретизация насыщенности            : 4:2:0
Битовая глубина                          : 8 бит
Тип развёртки                            : Прогрессивная
Метод сжатия                             : С потерями
Бит/(Пиксели*Кадры)                      : 0.231
Размер потока                            : 273 Мбайт (78%)
Библиотека кодирования                   : XviD 64

Аудио #1
Идентификатор                            : 1
Формат                                   : MPEG Audio
Версия формата                           : Version 1
Профиль формата                          : Layer 3
Идентификатор кодека                     : 55
Идентификатор кодека/Подсказка           : MP3
Продолжительность                        : 23 м.
Вид битрейта                             : Постоянный
Битрейт                                  : 192 Кбит/сек
Каналы                                   : 2 канала
Частота                                  : 48,0 КГц
Метод сжатия                             : С потерями
Размер потока                            : 32,5 Мбайт (9%)
Выравнивание                             : Соединение по промежуткам
Продолжительность промежутка             : 42  мс. (1,00 видеокадр)
Время предзагрузки промежутка            : 504  мс.
Заголовок                                : Russian [Vulpes Vulpes]
Библиотека кодирования                   : LAMEЄЄ Ыg„ ]…Кhґe™©

Аудио #2
Идентификатор                            : 2
Формат                                   : AC-3
Формат/Информация                        : Audio Coding 3
Расширение режима                        : CM (complete main)
Идентификатор кодека                     : 2000
Продолжительность                        : 23 м.
Вид битрейта                             : Постоянный
Битрейт                                  : 256 Кбит/сек
Каналы                                   : 2 канала
Расположение каналов                     : Front: L R
Частота                                  : 48,0 КГц
Битовая глубина                          : 16 бит
Метод сжатия                             : С потерями
Размер потока                            : 43,4 Мбайт (12%)
Выравнивание                             : Разделение по промежуткам
Продолжительность промежутка             : 42  мс. (1,00 видеокадр)
Время предзагрузки промежутка            : 500  мс.
Заголовок                                : Japanese [Original]


Скриншоты: - показать




Коментарий: В релизе присутствуют сканы.
Дядя Шарик
Релиз от
источник
ARRU & Vulpes Vulpes & RenmeiRei & REBUILD ARRU
А вы ничего не забыли?
наверх

Последние поступления