ARRU





Hunter X Hunter OVA-2
Охотник X Охотник (OVA-2)[1-8 из 8][TV-Rip][HWP]   Bookmark


Скачать вход / регистрация
Тема на форуме Обсудить аниме (комментариев: 59)
Обсуждение раздачи (комментариев: 28)
ОписаниеHunter X Hunter OVA-2 | Охотник X Охотник (OVA-2)[1-8 из 8][TV-Rip][HWP]
Английское название: Hunter X Hunter OVA-2
Русское название: Охотник X Охотник OVA-2
Страна: Япония
Студия:

Год выпуска/примьера: 2003
Жанр: приключения, комедия, фэнтези, сёнэн
Категория: OVA
Количество эпизодов: 8
Режиссёр:  Мацусита Юкихиро

Описание:
Класс людей, называемых Охотниками, используя психические силы (нэн) и обученные всевозможным видам борьбы, исследуют дикие уголки в основном цивилизованного мира. Главный герой аниме, юноша по имени Гон, сын самого великого Охотника. Его отец исчез много лет назад, и теперь, повзрослев, Гон идет по его стопам. По пути он приобретает нескольких компаньонов. Леорио – честолюбивый доктор медицинских наук, чья цель обогащение. Курапика – единственный выживший из своего клана, чья цель – месть. Киллуа – наследник семьи наемных убийц, главная его задача - тренировка. Вместе они добиваются цели, проходят все тесты и становятся Охотниками, но это только первая ступенька их долгого пути…

Сюжет не затянут и очень гармоничен. Волшебный мир - сочетание боевых техник, магии, говорящих животных, средневековых интерьеров и... сотовых телефонов, автобусов в час пик, дипломатов и галстуков.

Названия эпизодов:
01.Аукцион Х План Х 80%
02. Электричество Х Аура Х Спец. Атака
03. Рен Х Тест Х Путишествие
04. Начало Х Заклинание Х Город наград
05. Вербовка Х Список Х Первое - Камень
06. Полученая Х Потерянная Х Карточный АД
07. Бандиты Х Монстры Х Бисквит
08. Тренировка Х Самородки Х Руки-Ножници


Источник рипа: TV-Rip [Renmei Rei]
Автор рипа\энкод: Renmei Rei
Тип видео: Без хардсаба
Контейнер: AVI
Видео: XviD (Build 64) | 640 x 480 pixels | 23,976 fps | ~1300 kbps ;

Аудио:
1. RU - VO: mp3 | 48.0 KHz | stereo | 192 Kbps;
2. JP: mp3 | 48.0 KHz | stereo | 160 Kbps

Субтитры: Ru - soft [SRT]
Перевод: Raziel
Озвучивание: Mifsnaiper

MediaInfo: - показать
Общее
Полное имя                               : D:\Hunter X Hunter (OVA-2)[1-8 из 8][TV-Rip][HWP]\Hunter_X_Hunter_[OVA_2]_[01_of_08]_[ru_jp]_[MifSnaiper_&_Animereactor_Ru].avi
Формат                                   : AVI
Формат/Информация                        : Audio Video Interleave
Размер файла                             : 276 Мбайт
Продолжительность                        : 23 м.
Общий поток                              : 1666 Кбит/сек
Программа кодирования                    : VirtualDubModRus 1.5.10.2 (build 2542/release)
Библиотека кодирования                   : VirtualDubMod build 2542/release

Видео
Идентификатор                            : 0
Формат                                   : MPEG-4 Visual
Профиль формата                          : Advanced Simple@L5
Параметр BVOP формата                    : 2
Параметр QPel формата                    : Нет
Параметр GMC формата                     : Без точки перехода
Параметр матрицы формата                 : Default (H.263)
Идентификатор кодека                     : XVID
Идентификатор кодека/Подсказка           : XviD
Продолжительность                        : 23 м.
Битрейт                                  : 1300 Кбит/сек
Ширина                                   : 640 пикселей
Высота                                   : 480 пикселей
Соотношение сторон                       : 4:3
Частота кадров                           : 23,976 кадра/сек
Цветовое пространство                    : YUV
Субдискретизация насыщенности            : 4:2:0
Битовая глубина                          : 8 бит
Тип развёртки                            : Прогрессивная
Метод сжатия                             : С потерями
Бит/(Пиксели*Кадры)                      : 0.177
Размер потока                            : 215 Мбайт (78%)
Библиотека кодирования                   : XviD 64

Аудио #1
Идентификатор                            : 1
Формат                                   : MPEG Audio
Версия формата                           : Version 1
Профиль формата                          : Layer 3
Режим                                    : Joint stereo
Идентификатор кодека                     : 55
Идентификатор кодека/Подсказка           : MP3
Продолжительность                        : 23 м.
Вид битрейта                             : Постоянный
Битрейт                                  : 192 Кбит/сек
Каналы                                   : 2 канала
Частота                                  : 48,0 КГц
Метод сжатия                             : С потерями
Размер потока                            : 31,7 Мбайт (12%)
Выравнивание                             : Соединение по промежуткам
Продолжительность промежутка             : 42  мс. (1,00 видеокадр)
Время предзагрузки промежутка            : 504  мс.
Заголовок                                : Russian [MifSnaiper]
Библиотека кодирования                   : LAME3.98.2

Аудио #2
Идентификатор                            : 2
Формат                                   : MPEG Audio
Версия формата                           : Version 1
Профиль формата                          : Layer 3
Режим                                    : Joint stereo
Идентификатор кодека                     : 55
Идентификатор кодека/Подсказка           : MP3
Продолжительность                        : 23 м.
Вид битрейта                             : Постоянный
Битрейт                                  : 160 Кбит/сек
Каналы                                   : 2 канала
Частота                                  : 48,0 КГц
Метод сжатия                             : С потерями
Размер потока                            : 26,5 Мбайт (10%)
Выравнивание                             : Соединение по промежуткам
Продолжительность промежутка             : 42  мс. (1,00 видеокадр)
Время предзагрузки промежутка            : 504  мс.
Заголовок                                : Japanese [Original]
Библиотека кодирования                   : LAME3.98r
Настройки программы                      : -m j -V 4 -q 0 -lowpass 17.5 -b 160


Скриншоты: - показать


Дядя Шарик
Релиз от
источник
ARRU & MifSnaiper & SeM & RenmeiRei & REBUILD ARRU
А вы ничего не забыли?
наверх

Последние поступления