ARRU





Hunter X Hunter OVA-1
Охотник X Охотник (OVA-1)[1-8 из 8][TV-Rip][HWP]   Bookmark


Скачать вход / регистрация
Тема на форуме Обсудить аниме (комментариев: 59)
Обсуждение раздачи (комментариев: 36)
ОписаниеHunter X Hunter OVA-1 | Охотник X Охотник (OVA-1)[1-8 из 8][TV-Rip][HWP]
Английское название: Hunter X Hunter OVA
Русское название: Охотник X Охотник OVA
Страна: Япония
Год выпуска/примьера: 2002
Жанр: приключения, комедия, фэнтези, сёнэн
Категория: OVA
Количество эпизодов: 8
Режиссёр:  Сага Сатоси

Описание:
Потомственный наемный убийца - Киллуа, наивный мальчишка - Гон, логичный и выдержанный юноша - Курапика, амбициозный и несдержанный - Леорио, но в то же время они все удивительно способные и сообразительные.

Воплотилась в реальность мечта Курапики - найти банду Пауков убивших его клан. Семья Киллуа признала его готовым к самостоятельным странствиям, и Гон вновь пересекается с Хисокой, только в этот раз он в роли союзника. Круговерть отношений проносится перед глазами, и начинаешь сочувствовать «плохим» парням, с их верой в лидера, дружбой и готовностью к самопожертвованию. А «хорошие», оказывается не такие уж хорошие, с их стремлением к саморазрушению и принципом «деньги не пахнут».

Названия эпизодов:
01.Паук Х Труп Х Подделка
02. Друлья Х костюмы Х Адское Ухо
03. Поиск Х Побег Х Пауки на марше
04. Заложки Х Жалкие букашки Х Общие Эмоции
05. Отчёт Х Тьма Х Освоождённая Цепь
06. Спорт Х Разрыв Х Летящий курал
07. Обмен Х Месть Х Цепь дисциплины
08. Забота Х безпомощьность Х Падение пауков


Источник рипа: TV-Rip [Renmei Rei]
Автор рипа\энкод: Renmei Rei
Тип видео: Без хардсаба
Контейнер: AVI
Видео: XviD (Build 64) | 640 x 480 | 23,976 fps | ~1300 kbps ;

Аудио:
1. RU - VO: mp3 | 48.0 KHz | stereo | 256 Kbps;
2. JP: mp3 | 48.0 KHz | stereo | 256 Kbps

Субтитры: Ru - soft [SRT]
Перевод: Skan
Озвучивание: Mifsnaiper

MediaInfo: - показать
Общее
Полное имя                               : D:\Hunter X Hunter (OVA-1)[1-8 из 8][TV-Rip][HWP]\Hunter_X_Hunter_[OVA]_[01_of_08]_[ru_jp]_[MifSnaiper_&_Animereactor_Ru].avi
Формат                                   : AVI
Формат/Информация                        : Audio Video Interleave
Размер файла                             : 302 Мбайт
Продолжительность                        : 23 м.
Общий поток                              : 1828 Кбит/сек
Программа кодирования                    : VirtualDubModRus 1.5.10.2 (build 2542/release)
Библиотека кодирования                   : VirtualDubMod build 2542/release

Видео
Идентификатор                            : 0
Формат                                   : MPEG-4 Visual
Профиль формата                          : Advanced Simple@L5
Параметр BVOP формата                    : 2
Параметр QPel формата                    : Нет
Параметр GMC формата                     : Без точки перехода
Параметр матрицы формата                 : Default (H.263)
Идентификатор кодека                     : XVID
Идентификатор кодека/Подсказка           : XviD
Продолжительность                        : 23 м.
Битрейт                                  : 1302 Кбит/сек
Ширина                                   : 640 пикселей
Высота                                   : 480 пикселей
Соотношение сторон                       : 4:3
Частота кадров                           : 23,976 кадра/сек
Цветовое пространство                    : YUV
Субдискретизация насыщенности            : 4:2:0
Битовая глубина                          : 8 бит
Тип развёртки                            : Прогрессивная
Метод сжатия                             : С потерями
Бит/(Пиксели*Кадры)                      : 0.177
Размер потока                            : 215 Мбайт (71%)
Библиотека кодирования                   : XviD 64

Аудио #1
Идентификатор                            : 1
Формат                                   : MPEG Audio
Версия формата                           : Version 1
Профиль формата                          : Layer 3
Режим                                    : Joint stereo
Идентификатор кодека                     : 55
Идентификатор кодека/Подсказка           : MP3
Продолжительность                        : 23 м.
Вид битрейта                             : Постоянный
Битрейт                                  : 256 Кбит/сек
Каналы                                   : 2 канала
Частота                                  : 48,0 КГц
Метод сжатия                             : С потерями
Размер потока                            : 42,3 Мбайт (14%)
Выравнивание                             : Соединение по промежуткам
Продолжительность промежутка             : 42  мс. (1,00 видеокадр)
Время предзагрузки промежутка            : 504  мс.
Заголовок                                : Russian [MifSpaiper]
Библиотека кодирования                   : LAME3.98.2

Аудио #2
Идентификатор                            : 2
Формат                                   : MPEG Audio
Версия формата                           : Version 1
Профиль формата                          : Layer 3
Режим                                    : Joint stereo
Идентификатор кодека                     : 55
Идентификатор кодека/Подсказка           : MP3
Продолжительность                        : 23 м.
Вид битрейта                             : Постоянный
Битрейт                                  : 256 Кбит/сек
Каналы                                   : 2 канала
Частота                                  : 48,0 КГц
Метод сжатия                             : С потерями
Размер потока                            : 42,3 Мбайт (14%)
Выравнивание                             : Соединение по промежуткам
Продолжительность промежутка             : 42  мс. (1,00 видеокадр)
Время предзагрузки промежутка            : 504  мс.
Заголовок                                : Japanese [Original]
Библиотека кодирования                   : LAME3.98r
Настройки программы                      : -m j -V 4 -q 0 -lowpass 19.7


Скриншоты: - показать




Коментарий: незначительная ошибка в подписи дорожек.
Дядя Шарик
Релиз от
источник
ARRU & MifSnaiper & SeM & RenmeiRei & REBUILD ARRU
А вы ничего не забыли?
наверх

Последние поступления