ARRU





Ore-tachi ni Tsubasa wa Nai
Мы — бескрылые [01-12 из 12][BD-Rip][HWP]   Bookmark


Скачать вход / регистрация
Тема на форуме Обсудить аниме (комментариев: 24)
Обсуждение раздачи (комментариев: 5)
ОписаниеOre-tachi ni Tsubasa wa Nai | Мы — бескрылые [01-12 из 12][BD-Rip][HWP]
Оригинальное название: 俺たちに翼はない
Английское название: Ore-tachi ni Tsubasa wa Nai
Русское название: Мы — бескрылые
Страна: Япония
Год выпуска: 2011
Жанр: романтика, этти, комедия
Категория: TV
Количество эпизодов: 12
Продолжительность: 25 минут
Студия:

Режиссёр: Усиро Синдзи
Сценарий: Коно Такамицу

Описание:
Жить в Японии можно по-разному. Например, 17-летний Такаси Ханэда – выпускник старшей школы, тихий и застенчивый, которого то и дело уносит в «страну фантазию». Его кредо – бежать от житейских проблем, ведь от малейшего стресса парня скручивает приступ астмы. А вот Сюсукэ Титосэ, другой герой сериала – типичный свободный художник, веселый и общительный, может и статью написать, и девушку покорить, и подработать официантом в любимом ресторане «Александр». Ну а Хаято Нарита – одинокий «рыцарь ночи», которого знают и уважают на улицах за то, что суров, справедлив и берется за любую работу: от стройки и ремонта до «решения вопросов». Такому и с сестренкой главаря местной банды прогуляться не зазорно – люди все поймут правильно.

Три молодых человека, три ровесника, три судьбы. С одной стороны, каждый вроде бы живет в своем мире, но на деле мир для всех один; сферы, в которых вращаются персонажи, неизбежно пересекаются, а их поступки влияют друг на друга. Общие места, общие знакомые, общее небо постепенно соединяют ребят так прочно, что кажется, будто их личности - грани какой-то головоломки. Не зря каждый из троих героев носит схожее прозвище – Ястреб, Орел и Сокол. Есть ли у них крылья, суждено ли им летать и как высоко – ответ лежит по ту сторону экрана!
© Hollow

Названия эпизодов:
01. A Hypothetical Fairy Tale
02. My Favourite Animal Is the Pegasus
03. Kobato-san Is Cute
04. Dora... I Think I Might Be Pregnant at the Moment...
05. Oh, Thee Exalted Virtues of Count Bork!
06. Yikes! No Way, They`ll Hear Us!
07. The Admirable King Has Returned!
08. Is the Big-Breasted Gal with Cream Still Not Here Yet!
09. My Heart Is Pounding!
10. Please Be My Fan Forever
11. Are You Familiar with Imouto Moe?
12. We Don`t Have...


Источник рипа: BD-Rip [Yousei-raws]
Автор рипа\энкод: Renmei Rei
Тип видео: Без хардсаба
Контейнер: AVI
Видео: XviD (Build 64) | 720 x 404 | 23,976 fps | ~1600 kbps ;

Аудио:
1. RU - 2VO: AC-3 | 48.0 KHz | stereo | 256 Kbps [loster01 & Emeri]
2. RU - 2VO: AC-3 | 48.0 KHz | stereo | 256 Kbps [Eladiel & Lupin]
3. JP: AC-3 | 48.0 KHz | stereo | 256 Kbps

Субтитры: Ru - soft [SRT, SSA][Advantage & Hyakka Ryouran];
[Надписи + Полные][Nachtwandler, Hurricane, Iby]


MediaInfo: - показать
Общее
Полное имя                               : D:\Ore-tachi ni Tsubasa wa Nai TV [1-12 of 12][BD-Rip][HWP]\Ore-tachi_ni_Tsubasa_wa_Nai_TV_[01_of_12]_[ru_jp]_[Animereactor_ru].avi
Формат                                   : AVI
Формат/Информация                        : Audio Video Interleave
Размер файла                             : 421 Мбайт
Продолжительность                        : 24 м.
Общий поток                              : 2408 Кбит/сек
Программа кодирования                    : VirtualDubModRus 1.5.10.2 (build 2542/release)
Библиотека кодирования                   : VirtualDubMod build 2542/release

Видео
Идентификатор                            : 0
Формат                                   : MPEG-4 Visual
Профиль формата                          : Advanced Simple@L5
Параметр BVOP формата                    : 2
Параметр QPel формата                    : Нет
Параметр GMC формата                     : Без точки перехода
Параметр матрицы формата                 : Default (H.263)
Идентификатор кодека                     : XVID
Идентификатор кодека/Подсказка           : XviD
Продолжительность                        : 24 м.
Битрейт                                  : 1621 Кбит/сек
Ширина                                   : 720 пикселей
Высота                                   : 404 пикселя
Соотношение сторон                       : 16:9
Частота кадров                           : 23,976 кадра/сек
Цветовое пространство                    : YUV
Субдискретизация насыщенности            : 4:2:0
Битовая глубина                          : 8 бит
Тип развёртки                            : Прогрессивная
Метод сжатия                             : С потерями
Бит/(Пиксели*Кадры)                      : 0.232
Размер потока                            : 283 Мбайт (67%)
Библиотека кодирования                   : XviD 64

Аудио #1
Идентификатор                            : 1
Формат                                   : AC-3
Формат/Информация                        : Audio Coding 3
Расширение режима                        : CM (complete main)
Идентификатор кодека                     : 2000
Продолжительность                        : 24 м.
Вид битрейта                             : Постоянный
Битрейт                                  : 256 Кбит/сек
Каналы                                   : 2 канала
Расположение каналов                     : Front: L R
Частота                                  : 48,0 КГц
Битовая глубина                          : 16 бит
Метод сжатия                             : С потерями
Размер потока                            : 44,7 Мбайт (11%)
Выравнивание                             : Разделение по промежуткам
Продолжительность промежутка             : 42  мс. (1,00 видеокадр)
Время предзагрузки промежутка            : 500  мс.
Заголовок                                : Russianl [loster01 & Emeri]

Аудио #2
Идентификатор                            : 2
Формат                                   : AC-3
Формат/Информация                        : Audio Coding 3
Расширение режима                        : CM (complete main)
Идентификатор кодека                     : 2000
Продолжительность                        : 24 м.
Вид битрейта                             : Постоянный
Битрейт                                  : 256 Кбит/сек
Каналы                                   : 2 канала
Расположение каналов                     : Front: L R
Частота                                  : 48,0 КГц
Битовая глубина                          : 16 бит
Метод сжатия                             : С потерями
Размер потока                            : 44,7 Мбайт (11%)
Выравнивание                             : Разделение по промежуткам
Продолжительность промежутка             : 42  мс. (1,00 видеокадр)
Время предзагрузки промежутка            : 500  мс.
Заголовок                                : Russian [Eladiel & Lupin]

Аудио #3
Идентификатор                            : 3
Формат                                   : AC-3
Формат/Информация                        : Audio Coding 3
Расширение режима                        : CM (complete main)
Идентификатор кодека                     : 2000
Продолжительность                        : 24 м.
Вид битрейта                             : Постоянный
Битрейт                                  : 256 Кбит/сек
Каналы                                   : 2 канала
Расположение каналов                     : Front: L R
Частота                                  : 48,0 КГц
Битовая глубина                          : 16 бит
Метод сжатия                             : С потерями
Размер потока                            : 44,7 Мбайт (11%)
Выравнивание                             : Разделение по промежуткам
Продолжительность промежутка             : 42  мс. (1,00 видеокадр)
Время предзагрузки промежутка            : 500  мс.
Заголовок                                : Japanese [Original]


Скриншоты: - показать


Дядя Шарик
Релиз от
источник
ARRU & TF-AniGroup & RenmeiRei & REBUILD ARRU   &   Animedia
А вы ничего не забыли?
наверх

Последние поступления