ARRU





Hunter X Hunter TV1
Охотник X Охотник (первый сезон)[1-62 из 62][DVD-Rip][HWP]   Bookmark


Скачать вход / регистрация
Тема на форуме Обсудить аниме (комментариев: 59)
Обсуждение раздачи (комментариев: 30)
ОписаниеHunter X Hunter TV1 | Охотник X Охотник (первый сезон)[1-62 из 62][DVD-Rip][HWP]
Английское название: Hunter X Hunter
Русское название: Охотник X Охотник
Страна: Япония
Год выпуска / период трансляции: 1999
Жанр: приключения, комедия, фэнтези, сёнэн
Количество эпизодов: 62
Продолжительность: 24 мин  
Режиссёр: Фурухаси Кадзухиро  

Описание:
«Охотник х охотник» — это всем знакомый и многим любимый тип сёнэн-аниме, главная особенность которого заключается в том, что произведения, подпадаюшие под эту типологию, могут тянуться пятьдесят, сто пятьдесят, двести пятьдесят и больше эпизодов. «Охотник х охотник» тянется чуть больше шестидесяти, если быть точным, в нем шестьдесят две серии, на протяжении которых герои проходят все обязательные круги ада: тренируют боевые навыки, защищают друг друга в опасных ситуациях, сдают 30-серийный экзамен, мстят за родичей и непосредственно учат маленьких и не совсем маленьких японцев дружбе и пониманию. Последнее, как мне кажется, самое ценное их достижение.
Если говорить более просто, не зацикливаясь при этом на тенденциях и типологиях, то «Охотник х охотник» — это предельно увлекательный, милый и местами наивный ТВ-сериал. Он состоит из двух сфер: персонажей и сюжета. Детская даже для 1999 года графика и такие же дизайны, постоянно меняющаяся атмосфера, прикольная фэнтезийная, но не придающая атмосферности музыка — все это тут вторично; неплохо, но просто вторично. Примерно также вторично, как подпевала в хоре, он вроде как нужен для создания общей композиции, но доминирующей частью этой композиции не является. Именно поэтому обо всех этих атрибутах говорить дальше я не буду, а речь пойдет исключительно об означенных выше сферах.
Персонажи и сюжет хочется разобрать не просто по полочкам, так как это уже сделано в рецензии Шуклина и, как мне кажется, сделано вполне внятно. Скорее, мне хочется провести некие параллели с сериалом «Наруто», который вот уже третий год является мегапопулярным у зрителей не только Японии, но и США, Европы. В нашей стране его также многие видели и многие любят. Наверное, это единственное аниме, которое русские фансаберы переводят всего лишь с недельным опозданием вот уже на протяжении более года. «Наруто» в данном случае выбран не просто так, не взят с потолка. Дело в том, что все, что есть в «Охотнике», впоследствии оказалось и в «Наруто». И именно благодаря этому небольшому анализу хотелось бы выделить основные плюсы «Охотника», как и его основные минусы. Где-то я слышал поговорку, что «все познается в сравнении», честно скажу, она мне не нравится, но в данном случае нет более уместной народной мудрости. Также заранее извиняюсь перед читателем, не смотревшем «Наруто».

Источник рипа: DVD-Rip
Автор рипа\энкод: RACER RS
Тип видео: Без хардсаба
Контейнер: AVI
Видео: XviD (Build 1.3.0) | 640 x 480 (4:3) | 23,976 fps | ~1400 kbps ;

Аудио:
1. RU - VO: AC-3 | 48.0 KHz | stereo | 128 Kbps;
2. JP: AC-3 | 48.0 KHz | stereo | 128 Kbps

Субтитры: Ru - soft [SRT]
Перевод:
1-2 Tenkose
3-10,20-33 Tray
11-19, 34-37, 42-46 Voron
47-55, 61 Shinta
56-60, 62 Борис aka blackmercury
38-41 BTTF
Озвучивание: MifSnaiper
Таминг: 1-3 Милос 4-и дальше MifSnaiper

MediaInfo: - показать
General
Complete name                            : I:\ARRU Rebuild\Hunter_X_Hunter_TV1_HWP\Hunter_X_Hunter_[01_of_62]_[ru_jp]_[MifSnaiper_&_Animereactor_Ru].avi
Format                                   : AVI
Format/Info                              : Audio Video Interleave
File size                                : 274 MiB
Duration                                 : 23mn 9s
Overall bit rate                         : 1 652 Kbps
Writing application                      : VirtualDubMod 1.5.10.2 (build 2540/release)
Writing library                          : VirtualDubMod build 2540/release

Video
ID                                       : 0
Format                                   : MPEG-4 Visual
Format profile                           : Simple@L3
Format settings, BVOP                    : No
Format settings, QPel                    : No
Format settings, GMC                     : No warppoints
Format settings, Matrix                  : Default (H.263)
Codec ID                                 : XVID
Codec ID/Hint                            : XviD
Duration                                 : 23mn 9s
Bit rate                                 : 1 387 Kbps
Width                                    : 640 pixels
Height                                   : 480 pixels
Display aspect ratio                     : 4:3
Frame rate                               : 23.976 fps
Color space                              : YUV
Chroma subsampling                       : 4:2:0
Bit depth                                : 8 bits
Scan type                                : Progressive
Compression mode                         : Lossy
Bits/(Pixel*Frame)                       : 0.188
Stream size                              : 230 MiB (84%)
Writing library                          : XviD 1.3.0.dev55

Audio #1
ID                                       : 1
Format                                   : AC-3
Format/Info                              : Audio Coding 3
Mode extension                           : CM (complete main)
Codec ID                                 : 2000
Duration                                 : 23mn 9s
Bit rate mode                            : Constant
Bit rate                                 : 128 Kbps
Channel(s)                               : 2 channels
Channel positions                        : Front: L R
Sampling rate                            : 48.0 KHz
Bit depth                                : 16 bits
Compression mode                         : Lossy
Stream size                              : 21.2 MiB (8%)
Alignment                                : Aligned on interleaves
Interleave, duration                     : 96 ms (2.30 video frames)
Interleave, preload duration             : 576 ms
Title                                    : Russian [MifSnaiper]

Audio #2
ID                                       : 2
Format                                   : AC-3
Format/Info                              : Audio Coding 3
Mode extension                           : CM (complete main)
Codec ID                                 : 2000
Duration                                 : 23mn 9s
Bit rate mode                            : Constant
Bit rate                                 : 128 Kbps
Channel(s)                               : 2 channels
Channel positions                        : Front: L R
Sampling rate                            : 48.0 KHz
Bit depth                                : 16 bits
Compression mode                         : Lossy
Stream size                              : 21.2 MiB (8%)
Alignment                                : Aligned on interleaves
Interleave, duration                     : 96 ms (2.30 video frames)
Interleave, preload duration             : 576 ms
Title                                    : Japanese [Original]

Скриншоты: - показать




Дядя Шарик
Релиз от
источник
ARRU & MifSnaiper & SeM & REBUILD ARRU   &   RACER_RS
А вы ничего не забыли?
наверх

Последние поступления