ARRU





Redline
Красная черта (мувик)[BD-Rip][HWP][MCA]   Bookmark


Скачать
Сгенерировать линк на торрент файл
Полученный линк проживёт 1 минуту.
 магнет линк | TxT и Zip линки на безрейтинговом трекере
Тема на форуме Обсудить фильм (комментариев: 40)
Обсуждение раздачи (комментариев: 11)
ОписаниеRedline | Красная черта (мувик)[BD-Rip][HWP][MCA]
Оригинальное название: レッドライン
Английское название: Redline
Русское название: Жажда скорости | Красная черта
Страна: Япония
Год выпуска : 2009
Жанр: приключения, фантастика, романтика
Категория:  Movie
Количество эпизодов: 1 эпизод
Продолжительность: 100 минут
Студия: Madhouse Studios
Режиссёр:[ Койкэ Такэси
Автор оригинала: Исии Кацухито


Описание:
Раз в пять лет происходит событие, объединяющее самых непохожих друг на друга людей и человекоподобных существ - величайшие и опаснейшие автогонки в галактике, Красная черта! Каждый мечтает принять в них участие, однако место проведения гонок не разглашается до самого последнего момента, а желающим необходимо сначала показать себя в "отборочном туре", на Жёлтой черте. Одним из таких желающих стал "Милашка" JP, получивший своё прозвище за поразительную для подобного мероприятия честность (парень даже ни разу не использовал мины, в голове не укладывается!). И хотя победа на Жёлтой полосе ему не досталась, а сам он лёг в больницу с переломанными конечностями, организаторы внезапно сообщают ему, что он прошёл отбор и будет участвовать в Красной черте. Невольными благодетелями JP, "убравшими" двух его конкурентов, оказались правители Робомира, тоталитарной планеты, которую избрали в качестве трассы, на которой и будет происходить действо. Весьма разозлённые сим фактом, они полны решимости остановить гонку ещё до того, как раздастся сигнальный выстрел. И если два пилота сошли с дистанции ещё до начала гонки, то что же ждёт JP и его роскошную шевелюру на трассе? (с)

Источник рипа: BD-Rip [Salender-raws]
Автор рипа\энкод: Renmei Rei
Тип видео: Без хардсаба
Контейнер: AVI
Видео: XviD (Build 64) | 720 x 406 | 23,976 fps | ~1600 kbps ;

Аудио:
1. RU - MVO: AC-3 | 48.0 KHz | stereo | 256 Kbps;
2. JP: AC-3 | 48.0 KHz | 6 chanels | 448 Kbps

Субтитры: Ru - soft [SRT, SSA][kos-chan & Gorhla]
Перевод: Vaily
Озвучивание: Valkrist & Yuuhi & Kasumi

MediaInfo: - показать
Общее
Полное имя                               : D:\Redline (movie)[BD-Rip][HWP]\Redline.(movie).[MCA.&.Kasumi.&.Animereactor.ru].avi
Формат                                   : AVI
Формат/Информация                        : Audio Video Interleave
Размер файла                             : 1,66 Гбайт
Продолжительность                        : 1 ч. 42 м.
Общий поток                              : 2322 Кбит/сек
Программа кодирования                    : VirtualDubModRus 1.5.10.2 (build 2542/release)
Библиотека кодирования                   : VirtualDubMod build 2542/release

Видео
Идентификатор                            : 0
Формат                                   : MPEG-4 Visual
Профиль формата                          : Advanced Simple@L5
Параметр BVOP формата                    : 2
Параметр QPel формата                    : Нет
Параметр GMC формата                     : Без точки перехода
Параметр матрицы формата                 : Default (H.263)
Идентификатор кодека                     : XVID
Идентификатор кодека/Подсказка           : XviD
Продолжительность                        : 1 ч. 42 м.
Битрейт                                  : 1603 Кбит/сек
Ширина                                   : 720 пикселей
Высота                                   : 406 пикселей
Соотношение сторон                       : 16:9
Частота кадров                           : 23,976 кадра/сек
Цветовое пространство                    : YUV
Субдискретизация насыщенности            : 4:2:0
Битовая глубина                          : 8 бит
Тип развёртки                            : Прогрессивная
Метод сжатия                             : С потерями
Бит/(Пиксели*Кадры)                      : 0.229
Размер потока                            : 1,14 Гбайт (69%)
Библиотека кодирования                   : XviD 64

Аудио #1
Идентификатор                            : 1
Формат                                   : AC-3
Формат/Информация                        : Audio Coding 3
Расширение режима                        : CM (complete main)
Идентификатор кодека                     : 2000
Продолжительность                        : 1 ч. 42 м.
Вид битрейта                             : Постоянный
Битрейт                                  : 256 Кбит/сек
Каналы                                   : 2 канала
Расположение каналов                     : Front: L R
Частота                                  : 48,0 КГц
Битовая глубина                          : 16 бит
Метод сжатия                             : С потерями
Размер потока                            : 187 Мбайт (11%)
Выравнивание                             : Разделение по промежуткам
Продолжительность промежутка             : 42  мс. (1,00 видеокадр)
Время предзагрузки промежутка            : 500  мс.
Заголовок                                : Russian [Valkrist & Yuuhi & Kasumi]

Аудио #2
Идентификатор                            : 2
Формат                                   : AC-3
Формат/Информация                        : Audio Coding 3
Расширение режима                        : CM (complete main)
Идентификатор кодека                     : 2000
Продолжительность                        : 1 ч. 42 м.
Вид битрейта                             : Постоянный
Битрейт                                  : 448 Кбит/сек
Каналы                                   : 6 каналов
Расположение каналов                     : Front: L C R, Side: L R, LFE
Частота                                  : 48,0 КГц
Битовая глубина                          : 16 бит
Метод сжатия                             : С потерями
Размер потока                            : 327 Мбайт (19%)
Выравнивание                             : Разделение по промежуткам
Продолжительность промежутка             : 42  мс. (1,00 видеокадр)
Время предзагрузки промежутка            : 500  мс.
Заголовок                                : Japanese [Original]

Скриншоты: - показать

Дядя Шарик
Релиз от
источник
ARRU & Moscow City Animegroup - MCA & Kasumi & RenmeiRei & REBUILD ARRU
А вы ничего не забыли?
наверх

Последние поступления