ARRU





Cowboy Bebop: Tengoku no Tobira
Ковбой Бибоп: Достучаться до небес [movie][BD-Rip][HWP]   Bookmark


Скачать
Сгенерировать линк на торрент файл
Полученный линк проживёт 1 минуту.
 магнет линк | TxT и Zip линки на безрейтинговом трекере
Тема на форуме Обсудить фильм (комментариев: 173)
ОписаниеCowboy Bebop: Tengoku no Tobira | Ковбой Бибоп: Достучаться до небес [movie][BD-Rip][HWP]
Название:
1. Cowboy Bebop: Tengoku no Tobira
2. Cowboy Bebop: Knockin' on Heaven's door
3. Cowboy Bebop: Knocking on Heaven's Door
4. Cowboy Bebop - Tengoku no Tobira
5. COWBOY BEBOP 天国の扉
6. カウボーイビバップ天国の扉
Производство: Япония
Студия:

Жанр: приключения, комедия, фантастика
Тип: полнометражный фильм
Продолжительность: 114 мин.
Премьера: 01.09.2001
Режиссёр: Ватанабэ Синъитиро
Автор оригинала: Ятатэ Хадзимэ

Описание:
Накануне Хэллоуина на Марсе произошла трагедия: было применено неизвестное биологическое оружие, и сотни людей погибли или оказались в больнице. За голову террориста назначили баснословную награду, и команда «охотников за головами» с корабля Bebop 268170 решила взяться за это прибыльное задание.

По ходу расследования Спайк Шпигель знакомится с Электрой, которая также ищет жестокого преступника. Его зовут Винсент, раньше они служили вместе, поэтому мотивы Электры не так просты. Фэй Валентайн тоже не осталась в стороне, но она не подозревает, что ей грозит смертельная опасность: Винсент стремится отомстить всем людям, и приближающийся День Всех Святых вполне подходит для этой цели.

Фильм «Достучаться до небес» лучше всего смотреть после сериала, но и сам по себе он представляет несомненный интерес: захватывающий сюжет, в котором экшен-сцены перемежаются яркими диалогами, блюзово-джазовый саундтрек Ёко Канно и великолепная прорисовка мира будущего. Поклонники «Ковбоя Бибопа» найдут здесь множество отсылок к сериалу и встретят знакомых второстепенных персонажей. В фильме каждый из главных героев получил возможность проявить себя, однако большая часть времени отведена Спайку, кроме того, его характер великолепно раскрывается в финальной композиции Gotta Knock A Little Harde.
© Расселл Д. Джонс,

Источник рипа: BD-Rip [Thora]
Автор рипа\энкод: Renmei Rei
Тип видео: Без хардсаба
Контейнер: AVI
Видео: XviD (Build 64) | 720 x 386 pixels | 23,976 fps | ~1800 kbps ;

Аудио:
1. RU - MVO: AC-3 | 48.0 KHz | 6 chanels | 448 Kbps;
2. JP: AC-3 | 48.0 KHz | 6 chanels | 448 Kbps

Субтитры:
1. RU - soft [SRT, SSA][5VIN]
2. EN - soft [SRT, SSA][Thora]
Озвучивание: Видео Сервис [MCI]

MediaInfo: - показать
Общее
Полное имя                               : D:\Cowboy Bebop Knockin' on Heaven's Door [movie][BD-Rip][HWP]\Cowboy.Bebop.Knockin'.on.Heaven's.Door.(2001).[BDRip.XviD].avi
Формат                                   : AVI
Формат/Информация                        : Audio Video Interleave
Профиль формата                          : OpenDML
Размер файла                             : 2,21 Гбайт
Продолжительность                        : 1 ч. 54 м.
Общий поток                              : 2756 Кбит/сек
Программа кодирования                    : VirtualDubModRus 1.5.10.2 (build 2542/release)
Библиотека кодирования                   : VirtualDubMod build 2542/release

Видео
Идентификатор                            : 0
Формат                                   : MPEG-4 Visual
Профиль формата                          : Advanced Simple@L5
Параметр BVOP формата                    : 2
Параметр QPel формата                    : Нет
Параметр GMC формата                     : Без точки перехода
Параметр матрицы формата                 : Default (H.263)
Идентификатор кодека                     : XVID
Идентификатор кодека/Подсказка           : XviD
Продолжительность                        : 1 ч. 54 м.
Битрейт                                  : 1842 Кбит/сек
Ширина                                   : 720 пикселей
Высота                                   : 386 пикселей
Соотношение сторон                       : 1,865
Частота кадров                           : 23,976 кадра/сек
Цветовое пространство                    : YUV
Субдискретизация насыщенности            : 4:2:0
Битовая глубина                          : 8 бит
Тип развёртки                            : Прогрессивная
Метод сжатия                             : С потерями
Бит/(Пиксели*Кадры)                      : 0.276
Размер потока                            : 1,48 Гбайт (67%)
Библиотека кодирования                   : XviD 64

Аудио #1
Идентификатор                            : 1
Формат                                   : AC-3
Формат/Информация                        : Audio Coding 3
Расширение режима                        : CM (complete main)
Идентификатор кодека                     : 2000
Продолжительность                        : 1 ч. 54 м.
Вид битрейта                             : Постоянный
Битрейт                                  : 448 Кбит/сек
Каналы                                   : 6 каналов
Расположение каналов                     : Front: L C R, Side: L R, LFE
Частота                                  : 48,0 КГц
Битовая глубина                          : 16 бит
Метод сжатия                             : С потерями
Размер потока                            : 368 Мбайт (16%)
Выравнивание                             : Разделение по промежуткам
Продолжительность промежутка             : 42  мс. (1,00 видеокадр)
Время предзагрузки промежутка            : 500  мс.
Заголовок                                : Russian [VideoServis]

Аудио #2
Идентификатор                            : 2
Формат                                   : AC-3
Формат/Информация                        : Audio Coding 3
Расширение режима                        : CM (complete main)
Идентификатор кодека                     : 2000
Продолжительность                        : 1 ч. 54 м.
Вид битрейта                             : Постоянный
Битрейт                                  : 448 Кбит/сек
Каналы                                   : 6 каналов
Расположение каналов                     : Front: L C R, Side: L R, LFE
Частота                                  : 48,0 КГц
Битовая глубина                          : 16 бит
Метод сжатия                             : С потерями
Размер потока                            : 368 Мбайт (16%)
Выравнивание                             : Разделение по промежуткам
Продолжительность промежутка             : 42  мс. (1,00 видеокадр)
Время предзагрузки промежутка            : 500  мс.
Заголовок                                : Japanese [Original]


Скриншоты: - показать


Дядя Шарик
Релиз от
источник
ARRU & Netlab AnimaGroup & RenmeiRei   &   Thora
А вы ничего не забыли?
наверх

Последние поступления