ARRU





Fullmetal Alchemist: The Sacred Star of Milos
Стальной алхимик: Священная звезда Милоса (фильм второй)[BD-Rip][HWP]   Bookmark


Скачать вход / регистрация
Тема на форуме Обсудить фильм (комментариев: 735)
Обсуждение раздачи (комментариев: 23)
ОписаниеFullmetal Alchemist: The Sacred Star of Milos | Стальной алхимик: Священная звезда Милоса (фильм второй)[BD-Rip][HWP]
Оригинальное название: Fullmetal Alchemist Milos no Sei-Naru Hoshi
Английское название: Fullmetal Alchemist: The Sacred Star of Milos
Русское название: Стальной алхимик (фильм второй) Священная звезда Милоса
Страна: Япония  
Год выпуска : 2011
Жанр: приключения, драма, фэнтези
Категория: Movie
Количество эпизодов: 1
Продолжительность: 1 час 50 мин
Студия:
Режиссёр: Мурата Кадзуя

Описание:
Действие разворачивается в городе Милос, что расположен между Кретом и Аместрисом.
Два юных героя, прибывают в оный город, преследуя преступника, который сбежал из тюрьмы, оставив за собой лишь след полный тайн и загадок.
Попав в очередную передрягу Эду, вместе с Алом предстоит решить самую главную тайну, что хранит в себе город.
Что же из себя представляет "Священная звезда Милоса".©

Источник рипа: BD-Rip [Yousei-Raws]
Автор рипа\энкод: Renmei Rei
Тип видео: Без хардсаба
Контейнер: AVI
Видео: XviD (Build 64) | 720 x 404 | 23,976 fps | ~ 1600 kbps ;

Аудио:
1. RU - 2VO: AC-3 | 48.0 KHz | stereo | 256 Kbps;
2. JP: AC-3 | 48.0 KHz | 6 chanels | 448 Kbps

Субтитры: Ru - soft [SRT, SSA][Firegorn Team]
Перевод: Valkrist
Озвучивание: Valkrist & NASTR

MediaInfo: - показать
Общее
Полное имя                               : D:\Fullmetal Alchemist The Sacred Star of Milos  [movie][BD-Rip][HWP]\Full.metal.Alchemist.Milosno.Sei-Naru.Hoshi.[movie].[MCA.&.Animereactor].avi
Формат                                   : AVI
Формат/Информация                        : Audio Video Interleave
Размер файла                             : 1,80 Гбайт
Продолжительность                        : 1 ч. 50 м.
Общий поток                              : 2326 Кбит/сек
Программа кодирования                    : VirtualDubModRus 1.5.10.2 (build 2542/release)
Библиотека кодирования                   : VirtualDubMod build 2542/release

Видео
Идентификатор                            : 0
Формат                                   : MPEG-4 Visual
Профиль формата                          : Advanced Simple@L5
Параметр BVOP формата                    : 2
Параметр QPel формата                    : Нет
Параметр GMC формата                     : Без точки перехода
Параметр матрицы формата                 : Default (H.263)
Идентификатор кодека                     : XVID
Идентификатор кодека/Подсказка           : XviD
Продолжительность                        : 1 ч. 50 м.
Битрейт                                  : 1608 Кбит/сек
Ширина                                   : 720 пикселей
Высота                                   : 404 пикселя
Соотношение сторон                       : 16:9
Частота кадров                           : 23,976 кадра/сек
Цветовое пространство                    : YUV
Субдискретизация насыщенности            : 4:2:0
Битовая глубина                          : 8 бит
Тип развёртки                            : Прогрессивная
Метод сжатия                             : С потерями
Бит/(Пиксели*Кадры)                      : 0.231
Размер потока                            : 1,24 Гбайт (69%)
Библиотека кодирования                   : XviD 64

Аудио #1
Идентификатор                            : 1
Формат                                   : AC-3
Формат/Информация                        : Audio Coding 3
Расширение режима                        : CM (complete main)
Идентификатор кодека                     : 2000
Продолжительность                        : 1 ч. 50 м.
Вид битрейта                             : Постоянный
Битрейт                                  : 256 Кбит/сек
Каналы                                   : 2 канала
Расположение каналов                     : Front: L R
Частота                                  : 48,0 КГц
Битовая глубина                          : 16 бит
Метод сжатия                             : С потерями
Размер потока                            : 203 Мбайт (11%)
Выравнивание                             : Разделение по промежуткам
Продолжительность промежутка             : 42  мс. (1,00 видеокадр)
Время предзагрузки промежутка            : 500  мс.
Заголовок                                : Russian [Valkrist & NASTR]

Аудио #2
Идентификатор                            : 2
Формат                                   : AC-3
Формат/Информация                        : Audio Coding 3
Расширение режима                        : CM (complete main)
Идентификатор кодека                     : 2000
Продолжительность                        : 1 ч. 50 м.
Вид битрейта                             : Постоянный
Битрейт                                  : 448 Кбит/сек
Каналы                                   : 6 каналов
Расположение каналов                     : Front: L C R, Side: L R, LFE
Частота                                  : 48,0 КГц
Битовая глубина                          : 16 бит
Метод сжатия                             : С потерями
Размер потока                            : 355 Мбайт (19%)
Выравнивание                             : Разделение по промежуткам
Продолжительность промежутка             : 42  мс. (1,00 видеокадр)
Время предзагрузки промежутка            : 500  мс.
Заголовок                                : Japanese [Original]


Скриншоты: - показать


Дядя Шарик
Релиз от
источник
ARRU & Moscow City Animegroup - MCA & RenmeiRei & REBUILD ARRU
А вы ничего не забыли?
наверх

Последние поступления