ARRU





Shakugan no Shana TV
Огненноокая Шана (первый сезон)[01-24 из 24][DVD-Rip]   Bookmark


Скачать вход / регистрация
Тема на форуме Обсудить аниме (комментариев: 305)
Обсуждение раздачи (комментариев: 0)
Смотреть онлайн
ОписаниеShakugan no Shana TV | Огненноокая Шана (первый сезон)[01-24 из 24][DVD-Rip]
Оригинальное название: 灼眼のシャナ Shakugan no Shana
Английское название: Burning Eye Shana
Русское название: Огненноокая Шана
Страна: Япония  
Студия:
Год выхода: c 06.10.2005 по 23.03.2006
Жанр: Приключения, мистика, драма
Продолжительность/Количество серий: TV, 26 эпизодов
Режиссёр: Масимо Койти
Состав - показать
Автор оригинала:
Такахаси Яситиро / Takahashi Yashichiro / 高橋弥七郎
Режиссер:]Ватанабэ Такаси / Watanabe Takashi / 渡部高志
Уэда Сигэру / Ueda Shigeru / うえだしげる / 上田繁 — режиссер эпизода/сегмента (эп. 1, 3, 7, 13, 19, 21, 23, 24)
Такасима Дайсукэ / Takashima Daisuke / 高島大輔 — режиссер эпизода/сегмента (эп. 6, 14, 20, 22)
Такада Койти / Takada Kouichi / 高田耕一 — режиссер эпизода/сегмента (эп. 9)
Отани Масахито / Otani Masahito / 雄谷将仁 — режиссер эпизода/сегмента (эп. 11)
Исикава Тосихиро / Ishikawa Toshihiro / 石川敏浩 — режиссер эпизода/сегмента (эп. 15)
Икэхата Такаси / Ikehata Takashi / 池端隆史 — режиссер эпизода/сегмента (эп. 16, 17, 24)
Акитая Нориаки / Akitaya Noriaki / 秋田谷典昭 — режиссер эпизода/сегмента (эп. 1, 8, 18)
Симидзу Кадзунобу / Shimizu Kazunobu / 清水一伸 — режиссер эпизода/сегмента (эп. 5)
Тацусэн Юсюн / Tatsusen Yuushun / 立仙裕俊 — режиссер эпизода/сегмента (эп. 4, 10)
Ямана Такаси / Yamana Takashi / 山名隆史 — режиссер эпизода/сегмента (эп. 12)
Сугихара Юки / Sugihara Yuki — режиссер эпизода/сегмента (эп. 2)

Сценарий:
Кобаяси Ясуко / Kobayashi Yasuko / 小林靖子 — состав серий
Кобаяси Ясуко / Kobayashi Yasuko / 小林靖子 (эп. 1, 2, 3, 4, 7, 8, 10, 17, 18, 19, 21, 22, 23, 24)
Сато Сёити / Satou Shouichi / 佐藤勝一 (эп. 5, 11, 14, 15, 16)
Сиранэ Хидэки / Shirane Hideki / 白根秀樹 (эп. 6, 9, 12, 13, 20)

Роли озвучивали:
Кугимия Риэ / Kugimiya Rie / 釘宮理恵 — Шана
Хино Сатоси / Hino Satoshi / 日野聡 — Юдзи Сакай
Эбара Масаси / Ebara Masashi / 江原正士 — Аластор
Кавасуми Аяко / Kawasumi Ayako / 川澄綾子 — Кадзуми Ёсида
Сакурай Томо / Sakurai Tomo / 櫻井智 — Тигуса Сакай
Набатамэ Хитоми / Nabatame Hitomi / 生天目仁美 — Марджори До
Ивата Мицуо / Iwata Mitsuo / 岩田光央 — Маркосиас
Сувабэ Дзюнъити / Suwabe Junichi / 諏訪部順一 — Фриан
Кояма Кимико / Koyama Kimiko / こやまきみこ — Марианн
Ито Сидзука / Itou Shizuka / 伊藤静 — Вильгельмина Кармель
Окамура Акэми / Okamura Akemi / 岡村明美 — Привиес
Ватанабэ Акэно / Watanabe Akeno / 渡辺明乃 — Тиамат
Оно Ацуси / Ono Atsushi / 斧アツシ — Оргон
Нодзима Хирофуми / Nojima Hirofumi / 野島裕史 — Хаято Икэ
Минагава Дзюнко / Minagawa Junko / 皆川純子 — Хамсин
Хоки Кацухиса / Houki Katsuhisa / 宝亀克寿 — Бегемот
Кониси Кацуюки / Konishi Katsuyuki / 小西克幸 — Мэрихим / Сиро
Нодзима Кэндзи / Nojima Kenji / 野島健児 — Кэйсаку Сато
Миякэ Кэнта / Miyake Kenta / 三宅健太 — Сидоней
Ното Мамико / Noto Mamiko / 能登麻美子 — Геката
Асано Масуми / Asano Masumi / 浅野真澄 — Юкари Хирай
Киёкава Мотому / Kiyokawa Motomu / 清川元夢 — Ламиз
Като Нанаэ / Katou Nanae / 加藤奈々絵 — Домино
Тобита Нобуо / Tobita Nobuo / 飛田展男 — Данталион
Сирайси Рёко / Shiraishi Ryoko / 白石涼子 — Сорат
Охара Саяка / Ohara Sayaka / 大原さやか — Бел-Пеол
Кондо Такаюки / Kondou Takayuki / 近藤孝行 — Эйта Танака
Суго Такаюки / Sugo Takayuki / 菅生隆之 — Тэммоку Икко
Судзуки Тацухиса / Suzuki Tatsuhisa / 鈴木達央 — Винэ
Тамура Юкари / Tamura Yukari / 田村ゆかり — Тириэль
Кобаяси Юмико / Kobayashi Yumiko / 小林由美子 — Матакэ Огата




Описание
Сакаи Юджи был обычным школьником, но однажды его обыденная жизнь закончилась. Он был атакован монстром, пришедшим из иного мира, поедающим существование людей и превращающим их в Факелы. И в этот момент появилась девушка с огненными волосами и красными глазами, которая спасла его, а потом заявила - ты больше не существуешь... С этого дня для Юджи началась совсем другая жизнь.


Названия эпизодов
01 The End to Everything, the One Beginning
02 The Lit Flame
03 The Torch and The Flame Haze
04 The Confused Flame Haze
05 Respective Thoughts
06 Complication, Activation, Confrontation
07 The Two Flame Hazes
08 The Beautiful Goblet
09 Poolside of Love and Desire
10 Entangled Feelings
11 Yuji, Shana, and Kisses
12 Flowers Bloom in the Cradle
13 Declaration of War Behind the School
14 A Great Person
15 The Day the Flame Was Born
16 The Flame-Haired, Burning-Eyed Hunter
17 A New Chapter
18 Shattered Wish
19 Within Battle
20 Heartless Wilhelmina
21 Diverging Feelings
22 The Flickering Flame
23 Battle at the Palace of the Stars
24 Crimson Thoughts


Источник рипа: DVD
Автор рипа\энкод: Silent Spider
Тип видео: Без хардсаба
Контейнер: mkv
Видео: AVC(x.264)  | 848 x 480 | 23,976 fps | ~1600 kbps;

Аудио:
1. RU - VO: MP3 | 48.0 KHz | stereo | 192 Kbps;
2. JP: AC-3 | 48.0 KHz | stereo | 192 Kbps

Субтитры: Ru - soft [SSA] ext
Перевод: Джедай SN, Astarot, Dusker, Юкос
Озвучивание: Suzaku

MediaInfo: - показать
Общее
Уникальный идентификатор                 : 245357419847966272012033014306976929637 (0xB8961EC52EEF21998CDCA4D8988D9765)
Полное имя                               : D:\Shakugan no Shana TV-1\Shakugan no Shana TV-1 [01 of 24] The End to Everything, the One Beginning. [ru,jp][PC][SilentSpider_&_AnimeReactoR_Ru].mkv
Формат                                   : Matroska
Версия формата                           : Version 2
Размер файла                             : 351 Мбайт
Продолжительность                        : 24 м.
Общий поток                              : 1986 Кбит/сек
Дата кодирования                         : UTC 2012-02-12 16:44:44
Программа кодирования                    : mkvmerge v5.1.0 ('And so it goes' built on Nov 28 2011 23:58:28
Библиотека кодирования                   : libebml v1.2.3 + libmatroska v1.3.0
TRACKSET                                 : . 0000000030 x rus Russian sound 2.0

Видео
Идентификатор                            : 1
Формат                                   : AVC
Формат/Информация                        : Advanced Video Codec
Профиль формата                          : High@L4.0
Параметр CABAC формата                   : Да
Параметр ReFrames формата                : 16 кадров
Идентификатор кодека                     : V_MPEG4/ISO/AVC
Продолжительность                        : 24 м.
Битрейт                                  : 1600 Кбит/сек
Ширина                                   : 848 пикселей
Высота                                   : 480 пикселей
Соотношение сторон                       : 16:9
Частота кадров                           : 23,976 кадра/сек
Цветовое пространство                    : YUV
Субдискретизация насыщенности            : 4:2:0
Битовая глубина                          : 8 бит
Тип развёртки                            : Прогрессивная
Бит/(Пиксели*Кадры)                      : 0.164
Размер потока                            : 276 Мбайт (79%)
Заголовок                                : 01. The End to Everything, the One Beginning
Библиотека кодирования                   : x264 core 115 r1995 c1e60b9
Настройки программы                      : cabac=1 / ref=16 / deblock=1:1:1 / analyse=0x3:0x133 / me=umh / subme=9 / psy=1 / psy_rd=0.40:0.00 / mixed_ref=1 / me_range=16 / chroma_me=1 / trellis=2 / 8x8dct=1 / cqm=0 / deadzone=21,11 / fast_pskip=1 / chroma_qp_offset=-2 / threads=6 / sliced_threads=0 / nr=0 / decimate=1 / interlaced=0 / bluray_compat=0 / constrained_intra=0 / bframes=5 / b_pyramid=2 / b_adapt=2 / b_bias=0 / direct=3 / weightb=1 / open_gop=0 / weightp=2 / keyint=250 / keyint_min=23 / scenecut=40 / intra_refresh=0 / rc_lookahead=60 / rc=2pass / mbtree=1 / bitrate=1600 / ratetol=1.0 / qcomp=0.60 / qpmin=10 / qpmax=51 / qpstep=4 / cplxblur=20.0 / qblur=0.5 / ip_ratio=1.40 / aq=1:0.60
Язык                                     : Japanese
Default                                  : Да
Forced                                   : Нет

Аудио #1
Идентификатор                            : 2
Формат                                   : MPEG Audio
Версия формата                           : Version 1
Профиль формата                          : Layer 3
Режим                                    : Joint stereo
Идентификатор кодека                     : A_MPEG/L3
Идентификатор кодека/Подсказка           : MP3
Продолжительность                        : 24 м.
Вид битрейта                             : Постоянный
Битрейт                                  : 192 Кбит/сек
Каналы                                   : 2 канала
Частота                                  : 48,0 КГц
Метод сжатия                             : С потерями
Размер потока                            : 33,9 Мбайт (10%)
Заголовок                                : Russian audio 2.0
Язык                                     : Russian
Default                                  : Да
Forced                                   : Нет

Аудио #2
Идентификатор                            : 3
Формат                                   : AC-3
Формат/Информация                        : Audio Coding 3
Расширение режима                        : CM (complete main)
Идентификатор кодека                     : A_AC3
Продолжительность                        : 24 м.
Вид битрейта                             : Постоянный
Битрейт                                  : 192 Кбит/сек
Каналы                                   : 2 канала
Расположение каналов                     : Front: L R
Частота                                  : 48,0 КГц
Битовая глубина                          : 16 бит
Метод сжатия                             : С потерями
Размер потока                            : 33,9 Мбайт (10%)
Заголовок                                : Japanese audio 2.0
Язык                                     : Japanese
Default                                  : Нет
Forced                                   : Нет

Текст
Идентификатор                            : 4
Формат                                   : ASS
Идентификатор кодека                     : S_TEXT/ASS
Идентификатор кодека/Информация          : Advanced Sub Station Alpha
Метод сжатия                             : Без потерь
Заголовок                                : Russian subtitles ASS [Dusker, Astarot, Джедай_SN, Юкос]
Язык                                     : Russian
Default                                  : Нет
Forced                                   : Нет


Скриншоты: - показать



Дядя Шарик
Релиз от
источник
ARRU & Netlab AnimaGroup & REBUILD ARRU
А вы ничего не забыли?
наверх

Последние поступления