ARRU





Евангелион нового поколения
Neon Genesis Evangelion TV [01-26 из 26][DVDRip]   Bookmark


Скачать
Сгенерировать линк на торрент файл
Полученный линк проживёт 1 минуту.
 магнет линк | TxT и Zip линки на безрейтинговом трекере
Тема на форуме Обсудить аниме (комментариев: 721)
Обсуждение раздачи (комментариев: 120)
Смотреть онлайн
ОписаниеЕвангелион нового поколения | Neon Genesis Evangelion TV [01-26 из 26][DVDRip]
Оригинальное название: 新世紀エヴァンゲリオン / Shinseiki Evangelion
Английское название: Neon Genesis Evangelion
Русское название: Евангелион / Евангелион нового поколения

Страна: Япония
Период трансляции: c 04.10.1995 по 27.03.1996
Жанр: драма, психология, фантастика, постапокалиптика

Количество эпизодов ТВ: 26
Продолжительность: 25 мин
Режиссерские версии эпизодов: 4 (с 21 по 24)
Продолжительность: 25 мин

Студия: GAINAX
Режиссёр: Anno Hideaki, Tsurumaki Kazuya
Сценарий: Anno Hideaki, Satsugawa Akio
Композитор: Sagisu Shiro

Описание:
Прошло 15 лет после загадочной глобальной катастрофы, поставившей человечество на грань выживания. Но оставшихся в живых впереди ждут еще более страшные испытания... Землю атакуют "Ангелы", загадочные гигантские существа, появившиеся неизвестно откуда. Единственное оружие на планете, способное им противостоять - роботы серии "Евангелион", созданные при помощи передовых биотехнологий. Правда, сражаться с помощью этих огромных машин способны только те пилоты, которые могут полностью "синхронизировать" себя с роботом и управлять "Евангелионом" как собственным телом. Эти уникальные бойцы обучаются и живут в секретном подземном городе Токио-3, штаб-квартире организации "NERV", возглавляющей защиту Земли от вторжения. Синдзи, Аска и Рей - пилоты, между которыми складываются крайне непростые отношения. Но именно от них зависит судьба планеты и разгадка тайны зловещих "Ангелов"...
World Art

Названия эпизодов:
01. Angel Attack!
02. Unfamiliar Ceiling / The Beast
03. A Transfer The Phone That Never Rings
04. Rain, Escape & Afterwards - Hedgehog`s Dilemma
05. Rei Beyond her Heart
06. Showdown in Tokyo 3
07. The Human Creation
08. Asuka Strikes!
09. With One Accord in a Flash
10. Magma Diver
11. In the Still Darkness
12. The Value of a Miracle is...
13. Angel Invasion
14. Seele, Throne of Souls
15. Lie and Silence
16. Sickness Unto Death and...
17. The Fourth Child
18. The Judgement of Life
19. A Mans Fight
20. Form of the Mind, Form of the Man
21. The Birth of NERV (+ Director's Cut)
22. At Least, be Humane (+ Director's Cut)
23. Rei III (+ Director's Cut)
24. The Final Messenger (+ Director's Cut)
25. The World Ending
26. The Beast that Shouted `I` at the Heart of the World



Качество рипа: DVDRip
Автор рипа: Salender-Raws
Тип видео: Без хардсаба
Контейнер: mkv
Видео: AVC (x264) | 10 bit | 768x576 pixels | ~4000 Kbps |  23.976 fps ,
Для просмотра рекомендую обновить кодеки.

Аудио:
RUS: AC3 | 48000Hz | 384 Kbps | 6ch |
JAP: AC3 | 48000Hz | 448 Kbps | 6ch |

Озвучивание: MC Entertainment (многоголосая)
Скрытый текст - показать

В проекте принимали участие:
PoRo - Андрей Давыдов (1,2,3,19 эпизоды)
Snus - Николай Софронов (4,5,6,9 эпизоды)
By4 - Александр Лисин (7,8 эпизоды)
XuMuK - Сергей Комиссаров (10,26 эпизод)
3d6 - Дмитрий Дзюба (11,12,13,20 эпизоды)
Landsat - Андрей Носов (14,15,21 эпизоды)
Zontique - Игорь Сонин (16,17,18 эпизоды)
Never - Иван Рудев (22,23 эпизоды)
Vad - Вадим Меньшаков (24,25 эпизоды)
Voice & PoRo - Антон Скобин и Андрей Давыдов (1-ая и 2-ая части EoE)
PoRo - финальная редакция всех эпизодов.

Перевод: МФТИ (стилизован), а так же лирика и караоке: tophf
Скрытый текст - показать

Проект перевода Neon Genesis Evangelion: Director's Cut 21-24ep.
PoRo - перевод новых сцен, финальная редакция
Arpegius - тайминг, первая редакция
В скриптах для Director's Cut максимально использовался уже имеющийся перевод МФТИ,

Некоторые фразы во второй сцене 21 эпизода (Антарктида, запись внешней камеры) взяты из скрипта Neon Genesis Evangelion: Death,над которым работали: Константин Тимошенков aka Teisuu, Алексей Ефимов, Илья Муратов aka LEGION.
Соответственно, у каждого них предварительно было получено разрешение на использование скрипта. Остальные фразы указанной сцены и все новые фрагменты эпизодов Director's Cut были переведены PoRo.

Тайминг титров осуществлялся по ремастеренной версии Neon Genesis Evangelion: Director's Cut. Для более ранних версий Director's Cut может понадобиться небольшая коррекция тайминга. С точки зрения таймирования, наиболее трудоемкими оказались:
- первая и вторая сцены 21 эпизода (Антарктида, запись внутренней камеры) (Антарктида, запись внешней камеры);
- быстрая смена кадров в 22 эпизоде, при проникновении Arael в сознание Аски (до 19 меток в секунду).
В процессе работы над скриптом параметру "качество" был выставлен приоритет highest.
Фразы для перевода обсуждались и неоднократно редактировались. По этой причине, а также ввиду хронической занятости обоих участников проекта, перевод Director's Cut затянулся не на один месяц.


MediaInfo: - показать

Общее
Формат                           : Matroska
Версия формата                   : Version 2
Размер файла                     : 836 Мбайт
Продолжительность                : 23 м.
Общий поток                      : 5003 Кбит/сек
Название фильма                  : [Salender-Raws] Evangelion 01
Дата кодирования                 : UTC 2012-02-12 08:37:38
Программа кодирования            : mkvmerge v3.4.0 сборка от May 15 2010 09:38:20
Библиотека кодирования           : libebml v0.8.0 + libmatroska v0.9.0

Видео
Идентификатор                    : 1
Формат                           : AVC
Формат/Информация                : Advanced Video Codec
Профиль формата                  : High 10@L4.1
Параметр CABAC формата           : Да
Параметр ReFrames формата        : 16 кадров
Идентификатор кодека             : V_MPEG4/ISO/AVC
Продолжительность                : 23 м.
Битрейт                          : 4071 Кбит/сек
Ширина                           : 768 пикселей
Высота                           : 576 пикселей
Соотношение сторон               : 4:3
Частота кадров                   : 23,976 кадра/сек
Цветовое пространство            : YUV
Субдискретизация насыщенности    : 4:2:0
Битовая глубина                  : 10 бит
Тип развёртки                    : Прогрессивная
Бит/(Пиксели*Кадры)              : 0.384
Размер потока                    : 680 Мбайт (81%)
Библиотека кодирования           : x264 core 116 r2044 392e762
Язык                             : Japanese
Default                          : Нет
Forced                           : Нет

Аудио #1
Идентификатор                    : 2
Формат                           : AC-3
Формат/Информация                : Audio Coding 3
Расширение режима                : CM (complete main)
Идентификатор кодека             : A_AC3
Продолжительность                : 23 м.
Вид битрейта                     : Постоянный
Битрейт                          : 384 Кбит/сек
Каналы                           : 6 каналов
Расположение каналов             : Front: L C R, Side: L R, LFE
Частота                          : 48,0 КГц
Битовая глубина                  : 16 бит
Метод сжатия                     : С потерями
Размер потока                    : 64,2 Мбайт (8%)
Заголовок                        : MC Entertainment
Язык                             : Russian
Default                          : Да
Forced                           : Нет

Аудио #2
Идентификатор                    : 3
Формат                           : AC-3
Формат/Информация                : Audio Coding 3
Расширение режима                : CM (complete main)
Идентификатор кодека             : A_AC3
Продолжительность                : 23 м.
Вид битрейта                     : Постоянный
Битрейт                          : 448 Кбит/сек
Каналы                           : 6 каналов
Расположение каналов             : Front: L C R, Side: L R, LFE
Частота                          : 48,0 КГц
Битовая глубина                  : 16 бит
Метод сжатия                     : С потерями
Размер потока                    : 74,9 Мбайт (9%)
Заголовок                        : Origina
Язык                             : Japanese
Default                          : Нет
Forced                           : Нет

Текст
Идентификатор                    : 4
Формат                           : ASS
Идентификатор кодека             : S_TEXT/ASS
Идентификатор кодека/Информация  : Advanced Sub Station Alpha
Метод сжатия                     : Без потерь
Заголовок                        : МФТИ (стилизованные)
Язык                             : Russian
Default                          : Да
Forced                           : Нет


Скриншоты: - показать



От себя:
Данный релиз был был предоставлен товарищем Aglenn, за что ему огромное спасибо.
Дядя Шарик
Релиз от
источник
ARRU & Netlab AnimaGroup & - Найдено в сети & REBUILD ARRU
А вы ничего не забыли?
наверх

Последние поступления