ARRU





Tibet Inu Monogatari: Kiniro no Dao Jie
Тибетский пес [мувик][BDRip][HWP]   Bookmark


Скачать вход / регистрация
Тема на форуме Обсудить фильм (комментариев: 3)
Обсуждение раздачи (комментариев: 3)
ОписаниеTibet Inu Monogatari: Kiniro no Dao Jie | Тибетский пес [мувик][BDRip][HWP]
Оригинальное название: Tibet Inu Monogatari: Kin'iro no Dao Jie
Английское название: Tibetan Dog
Русское название: Тибетский пес
Страна: Япония
Год выпуска: 2011
Жанр: приключения
Категория: Movie
Количество эпизодов: 1
Продолжительность: 90 минут
Студия: Madhouse Studios
Режиссёр: Кодзима Масаюки
Сценарий: Иноэ Наото

Описание:
После смерти матери, десятилетний Тяньцзинь уезжает жить из города в тибетскую прерию, к отцу, который оставил его в младенческом возрасте. Непривыкшему к деревенской жизни мальчику поначалу сложно адаптироваться к местным условиям, а отец с ним холоден и немногословен. Однажды, золотоволосая собака, породы тибетский мастиф, спасает ему жизнь. Этот пес пришлый, раньше его в этих местах не видели. Тяньцзинь привязывается к необычной собаке. Пес нередко и надолго уходит куда-то. Примерно в то же время, в этой местности происходит череда странных убийств — какой-то зверь жестоко расправляется с животными и людьми...
© Slonka


Источник рипа: BD-Rip
Автор рипа\энкод: Renmei Rei
Тип видео: Без хардсаба
Контейнер: AVI
Видео: XviD (Build 64) | 720 x 404 | 23,976 fps | ~1600 kbps ;

Аудио:
1. RU - MVO: AC-3 | 48.0 KHz | stereo | 256 Kbps;
2. CHI: AC-3 | 48.0 KHz | 6 chanels | 448 Kbps

Субтитры: Ru - soft [SRT]
Перевод: Slonka
Озвучивание: sad_kit, Dajana, Darmen, Milirina, Ms Наташа

MediaInfo: - показать
Общее
Полное имя                               : D:\Tibet Inu Monogatari - Kin iro no Dao Jie [BD-Rip][HWP]\Tibet.Inu.Monogatari-Kin.iro.no.Dao.Jie.[Anything.group.&.Animereactor.ru].[BD-Rip].avi
Формат                                   : AVI
Формат/Информация                        : Audio Video Interleave
Размер файла                             : 1,51 Гбайт
Продолжительность                        : 1 ч. 34 м.
Общий поток                              : 2294 Кбит/сек
Программа кодирования                    : VirtualDubModRus 1.5.10.2 (build 2542/release)
Библиотека кодирования                   : VirtualDubMod build 2542/release

Видео
Идентификатор                            : 0
Формат                                   : MPEG-4 Visual
Профиль формата                          : Advanced Simple@L5
Параметр BVOP формата                    : 2
Параметр QPel формата                    : Нет
Параметр GMC формата                     : Без точки перехода
Параметр матрицы формата                 : Default (H.263)
Идентификатор кодека                     : XVID
Идентификатор кодека/Подсказка           : XviD
Продолжительность                        : 1 ч. 34 м.
Битрейт                                  : 1604 Кбит/сек
Ширина                                   : 720 пикселей
Высота                                   : 404 пикселя
Соотношение сторон                       : 16:9
Частота кадров                           : 23,976 кадра/сек
Цветовое пространство                    : YUV
Субдискретизация насыщенности            : 4:2:0
Битовая глубина                          : 8 бит
Тип развёртки                            : Прогрессивная
Метод сжатия                             : С потерями
Бит/(Пиксели*Кадры)                      : 0.230
Размер потока                            : 1,06 Гбайт (70%)
Библиотека кодирования                   : XviD 64

Аудио #1
Идентификатор                            : 1
Формат                                   : AC-3
Формат/Информация                        : Audio Coding 3
Расширение режима                        : CM (complete main)
Идентификатор кодека                     : 2000
Продолжительность                        : 1 ч. 30 м.
Вид битрейта                             : Постоянный
Битрейт                                  : 256 Кбит/сек
Каналы                                   : 2 канала
Расположение каналов                     : Front: L R
Частота                                  : 48,0 КГц
Битовая глубина                          : 16 бит
Метод сжатия                             : С потерями
Размер потока                            : 166 Мбайт (11%)
Выравнивание                             : Разделение по промежуткам
Продолжительность промежутка             : 43  мс. (1,04 видеокадр)
Время предзагрузки промежутка            : 500  мс.
Заголовок                                : Russian [Anything-group]

Аудио #2
Идентификатор                            : 2
Формат                                   : AC-3
Формат/Информация                        : Audio Coding 3
Расширение режима                        : CM (complete main)
Идентификатор кодека                     : 2000
Продолжительность                        : 1 ч. 30 м.
Вид битрейта                             : Постоянный
Битрейт                                  : 448 Кбит/сек
Каналы                                   : 6 каналов
Расположение каналов                     : Front: L C R, Side: L R, LFE
Частота                                  : 48,0 КГц
Битовая глубина                          : 16 бит
Метод сжатия                             : С потерями
Размер потока                            : 291 Мбайт (19%)
Выравнивание                             : Разделение по промежуткам
Продолжительность промежутка             : 43  мс. (1,04 видеокадр)
Время предзагрузки промежутка            : 500  мс.
Заголовок                                : Chinese [Original]

Скриншоты: - показать





Дядя Шарик
Релиз от
источник
ARRU & Anything-Group & RenmeiRei
А вы ничего не забыли?
наверх

Последние поступления