ARRU





Tokyo Underground TV
Подземелье Токио [01 - 26 из 26][DVD-Rip][HWP]   Bookmark


Скачать вход / регистрация
Тема на форуме Обсудить аниме (комментариев: 12)
Обсуждение раздачи (комментариев: 18)
ОписаниеTokyo Underground TV / Подземелье Токио [01 - 26 из 26][DVD-Rip][HWP]
Оригинальное название: 東京アンダーグラウンド
Английское название: Tokyo Underground
Русское название: Подземелье Токио
Страна: Япония
Период трансляции: c 02.04.2002 по 24.09.2002
Жанр: приключения, фэнтези, романтика, комедия
Категория: TV
Количество эпизодов: 26
Продолжительность: 24 мин.
Студия:
Режиссёр: Датэ Хаято
Автор оригинала: Ураку Акинобу

Описание:
В некоторой реальности в тридесятой столице Японии жил - не тужил боевой парниша Сетсуна, и учил его деда гадостям всяким бойцовским, прямо жизни ему от этих тренировок никакой не было. Но как-то раз, вернувшись со школы, обнаружил он в доме у себя двух незнакомых существ женского роду, одно постарше да позлее, а другое помоложе да посимпатичнее. Вот тут-то и начались приключения...

Рассказали ему гостьи, что пришли они из царства подземного, что сбежали от сил темных, да укрыться бы им надобно... Ну, Сетсуна - он на то и Сетсуна, чтобы согласиться. И вот первая нападка, страшный чародей напал на их дом, из рук своих он огонь выпускал, да взглядом траву поджигал, вот и попалась старшая блондиночка в ловушку. Ну, Сетсуна не будь дурак в защиту кинулся, говорит, мол, ах ты такой-сякой, да я, да у меня, да я вообще такой крутой, а ты тут... ничего не сказал чародеюшка, только кивнул довольно да проткнул паренька коготками своими стальными. В общем тут бы и сказке конец, да вот беда - вторая серия ещё не кончилось, а ведь ещё надо на 24 всё это безобразие растянуть. смекнула тут что к чему младшая девица, да и оживила добра молодца. Ну вот он взял свой меч-кладенец деревянный, дунул-плюнул, огонек потушил, да врага уложил... А вот тут такое началось...

Несмотря на то, что с первых серий сериал кажется довольно дурацким, он постепенно выправляется в серьезную сторону, он сделан в очень оригинальном стиле с нестандартными эффектами, в сериала очень много боев, но не таких тупых как "плохой лупит-лупит хорошего, а тот его на последнем дыхании по слабому месту пальчиком тык - тот и скопытился", нет, бои на самом деле интересные и довольно продолжительные, исход не всегда предсказуем. Кстати, очень многие "предсказуемые" линии имеют моду ломаться в решающий момент и перетекать во что-то такое нестандартное. Музыкальное оформление сериала довольно хорошо сделано, мне понравились очень вступительные песни и общее сопровождение.

В общем это - замечательное аниме о любви, предательстве, мече и магии...

Вердикт: Смотреть всем, кто хочет просто отдохнуть. Сериал затягивает, но не заставляет ни о чем задумываться.
© LazyZefiris

Названия эпизодов:
01. Surface - The Destined Encounter
02. Spiritual Summoning - Shrine Maiden of Life
03. The Awakening - When the Wind moves
04. Full Moon - Ruri"s feelings
05. Confrontation - The Two Water Controllers
06. Training - Each One"s Decisions
07. Rushing In - To the Underground!
08. Suupei - The Trap Hidden in the Dark
09. Spirit Gun - In Order to Fight Together
10. Counter Attack - Again with Water User
11. Battle to the Death - Beyond Hatred
12. Rebellion - Escape to the Light
13. Promise - The Wish in the Ribbon
14. Pursuit - The Minions of the Tower Gate
15. Attack - Broken Bonds
16. Attack - Unforgotten Melody
17. Gradual Attack - For the Sake of the Smile
18. Meet Again - Tear Wiping Wind
19. Impatience - Thoughts That Do Not Reach
20. Assassin - The Trap of the Magnetic User
21. Slums - Town of rebels
22. Concentration - Invitation to killing field
23. Fierce battle - Aiming for the top
24. Reason - Flame of betrayal
25. Collapse - An Incurable Heart
26. To the Light - Let our Thoughts Become One


Источник рипа: DVD Rip
Автор рипа\энкод: Renmei Rei
Тип видео: Без хардсаба
Контейнер: AVI
Видео: XviD (Build 64) | 640 x 480 | 29,970 fps | ~ 1700 kbps ;

Аудио:
1. RU - VO: AC-3 | 48.0 KHz | stereo | 192 Kbps;
2. JP: AC-3 | 48.0 KHz | stereo | 192 Kbps

Субтитры: Ru - soft [SRT][Mr.NeGaTiVe & Shelest]
Перевод: Mr.NeGaTiVe & Shelest
Тайминг: Date31
Озвучивание: Mifsnaiper

MediaInfo: - показать
Общее
Полное имя                               : D:\Tokyo Underground\Tokyo.Underground.TV.[06.of.26].Training-Each.One's.Decisions.[MifSnaiper.&.AnimeReactor.RU].avi
Формат                                   : AVI
Формат/Информация                        : Audio Video Interleave
Размер файла                             : 342 Мбайт
Продолжительность                        : 22 м.
Общий поток                              : 2108 Кбит/сек
Программа кодирования                    : VirtualDubModRus 1.5.10.2 (build 2542/release)
Библиотека кодирования                   : VirtualDubMod build 2542/release

Видео
Идентификатор                            : 0
Формат                                   : MPEG-4 Visual
Профиль формата                          : Advanced Simple@L5
Параметр BVOP формата                    : 2
Параметр QPel формата                    : Нет
Параметр GMC формата                     : Без точки перехода
Параметр матрицы формата                 : Default (H.263)
Идентификатор кодека                     : XVID
Идентификатор кодека/Подсказка           : XviD
Продолжительность                        : 22 м.
Битрейт                                  : 1706 Кбит/сек
Ширина                                   : 640 пикселей
Высота                                   : 480 пикселей
Соотношение сторон                       : 4:3
Частота кадров                           : 29,970 кадров/сек
Цветовое пространство                    : YUV
Субдискретизация насыщенности            : 4:2:0
Битовая глубина                          : 8 бит
Тип развёртки                            : Прогрессивная
Метод сжатия                             : С потерями
Бит/(Пиксели*Кадры)                      : 0.185
Размер потока                            : 277 Мбайт (81%)
Библиотека кодирования                   : XviD 64

Аудио #1
Идентификатор                            : 1
Формат                                   : AC-3
Формат/Информация                        : Audio Coding 3
Расширение режима                        : CM (complete main)
Идентификатор кодека                     : 2000
Продолжительность                        : 22 м.
Вид битрейта                             : Постоянный
Битрейт                                  : 192 Кбит/сек
Каналы                                   : 2 канала
Расположение каналов                     : Front: L R
Частота                                  : 48,0 КГц
Битовая глубина                          : 16 бит
Метод сжатия                             : С потерями
Размер потока                            : 31,2 Мбайт (9%)
Выравнивание                             : Разделение по промежуткам
Продолжительность промежутка             : 33  мс. (1,00 видеокадр)
Время предзагрузки промежутка            : 500  мс.
Заголовок                                : Russian [MifSnaiper]

Аудио #2
Идентификатор                            : 2
Формат                                   : AC-3
Формат/Информация                        : Audio Coding 3
Профиль формата                          : Dolby Digital
Расширение режима                        : CM (complete main)
Идентификатор кодека                     : 2000
Продолжительность                        : 22 м.
Вид битрейта                             : Постоянный
Битрейт                                  : 192 Кбит/сек
Каналы                                   : 2 канала
Расположение каналов                     : Front: L R
Частота                                  : 48,0 КГц
Битовая глубина                          : 16 бит
Метод сжатия                             : С потерями
Размер потока                            : 31,2 Мбайт (9%)
Выравнивание                             : Разделение по промежуткам
Продолжительность промежутка             : 33  мс. (1,00 видеокадр)
Время предзагрузки промежутка            : 500  мс.
Заголовок                                : Japanese [Original]


Скриншоты: - показать


Дядя Шарик
Релиз от
источник
ARRU & MifSnaiper & SeM & RenmeiRei & REBUILD ARRU
А вы ничего не забыли?
наверх

Последние поступления